找回密码

蓝光电影网

查看: 374|回复: 11

[2160p] 超能敢死队[简繁英字幕].Ghostbusters.Afterlife.2021.BluRay.2160p.TrueHD.Atmos.7.1.x265.10bit.HDR-ALT 14.55GB

[复制链接]
蓝光币
7
发表于 2022-7-27 02:37:52 | 显示全部楼层 |阅读模式


◎标  题 超能敢死队
◎译  名 捉鬼敢死队:魅来天下(港) / 魔鬼克星 未来世(台) / 捉鬼敢死队:来世 / 捉鬼敢死队:来生 / 新捉鬼敢死队 / 捉鬼敢死队3 / 锈蚀之城 / Ghostbusters 2020 / Rust City
◎片  名 Ghostbusters: Afterlife
◎年  代 2021
◎产  地 加拿大 / 美国
◎类  别 笑剧 / 奇异 / 冒险
◎语  言 英语
◎上映日期 2021-11-19(美国)
◎IMDb评分 7.8/10 (22001人评价)
◎IMDb链接 https://www.imdb.com/title/tt4513678/
◎豆瓣评分 6.7/10 (374人评价)
◎豆瓣链接 https://movie.douban.com/subject/26838236/
◎片  长 124分钟
◎导  演 贾森·雷特曼 Jason Reitman
◎编  剧 吉尔·克兰 Gil Kenan
       贾森·雷特曼 Jason Reitman
       丹·艾克罗伊德 Dan Aykroyd
       哈罗德·雷米斯 Harold Ramis
◎演  员 菲恩·伍法德 Finn Wolfhard
       麦肯娜·格瑞丝 Mckenna Grace
       保罗·路德 Paul Rudd
       凯莉·库恩 Carrie Coon
        洛根金  Logan Kim
       塞莱斯特·奥康纳 Celeste O'Connor
       安妮·波茨 Annie Potts
       比尔·默瑞 Bill Murray
       丹·艾克罗伊德 Dan Aykroyd
       埃涅·赫德森 Ernie Hudson
       西格妮·韦弗 Sigourney Weaver
       鲍勃·冈顿 Bob Gunton
       J·K·西蒙斯 J.K. Simmons
       肖恩·西沃德 Shawn Seward
       比利·布莱克 Billy Bryk
       悉尼·梅·迪亚兹 Sydney Mae Diaz
       博基姆·伍德拜因 Bokeem Woodbine
       乔什·加德 Josh Gad
       索瑞·安达斯鲁 Shohreh Aghdashloo
       奥利弗·库珀 Oliver Cooper
       奥利维亚·王尔德 Olivia Wilde
       谢尔碧·杨 Shelby Young
◎标  签 科幻 / 笑剧 / 奇异 / 美国 / 2021 / 行动 / 续集 / 鬼灵精怪
◎简  介
    一对年幼的兄妹跟从母亲来到了乡下,但是这个偏僻安好的小镇,却发生了连续串奇异的怪事,一位宣称研讨超自然现象的奥秘男人静静现身。
  1. ##### MediaInfo ######
  2. General
  3. Unique ID                                : 211179613137788158423440089737776306375 (0x9EDFB6CC8BAB0507728A8666E26F98C7)
  4. Complete name                            : Ghostbusters.Afterlife.2021.BluRay.2160p.TrueHD.Atmos.7.1.x265.10bit.HDR-ALT.mkv
  5. Format                                   : Matroska
  6. Format version                           : Version 4
  7. File size                                : 14.6 GiB
  8. Duration                                 : 2 h 3 min
  9. Overall bit rate mode                    : Variable
  10. Overall bit rate                         : 16.8 Mb/s
  11. Encoded date                             : UTC 2022-02-02 16:37:40
  12. Writing application                      : mkvmerge v49.0.0 ('Sick Of Losing Soulmates') 64-bit
  13. Writing library                          : libebml v1.4.0 + libmatroska v1.6.1
  14. Video
  15. ID                                       : 1
  16. Format                                   : HEVC
  17. Format/Info                              : High Efficiency Video Coding
  18. Format profile                           : Main [email protected]@High
  19. HDR format                               : SMPTE ST 2086, HDR10 compatible
  20. Codec ID                                 : V_MPEGH/ISO/HEVC
  21. Duration                                 : 2 h 3 min
  22. Bit rate                                 : 12.0 Mb/s
  23. Width                                    : 3 840 pixels
  24. Height                                   : 1 600 pixels
  25. Display aspect ratio                     : 2.40:1
  26. Frame rate mode                          : Constant
  27. Frame rate                               : 23.976 (24000/1001/53875) FPS
  28. Color space                              : YUV
  29. Chroma subsampling                       : 4:2:0 (Type 2)
  30. Bit depth                                : 10 bits
  31. Bits/(Pixel*Frame)                       : 0.082
  32. Stream size                              : 10.4 GiB (71%)
  33. Title                                    : HEVC, [email protected]@High, 24/1.001 fps @ 12006 kbps
  34. Writing library                          : x265 3.4+14-gd419c7152:[Windows][GCC 10.2.0][64 bit] 10bit
  35. Encoding settings                        : cpuid=538751111039 / frame-threads=4 / numa-pools=20 / wpp / pmode / pme / no-psnr / no-ssim / log-level=2 / input-csp=1 / input-res=3840x1600 / interlace=0 / total-frames=178296 / level-idc=51 / high-tier=1 / uhd-bd=0 / ref=4 / no-allow-non-conformance / repeat-headers / annexb / no-aud / hrd / info / hash=0 / no-temporal-layers / no-open-gop / min-keyint=24 / keyint=240 / gop-lookahead=0 / bframes=8 / b-adapt=2 / b-pyramid / bframe-bias=0 / rc-lookahead=25 / lookahead-slices=0 / NTM4NzU=uuDQuD2mJt9fsCf / scenecut=40 / hist-scenecut=0 / radl=0 / no-splice / no-intra-refresh / ctu=64 / min-cu-size=8 / no-rect / no-amp / max-tu-size=32 / tu-inter-depth=3 / tu-intra-depth=3 / limit-tu=4 / rdoq-level=2 / dynamic-rd=0.00 / no-ssim-rd / signhide / no-tskip / nr-intra=0 / nr-inter=0 / no-constrained-intra / no-strong-intra-smoothing / max-merge=4 / limit-refs=1 / limit-modes / me=3 / subme=4 / merange=25 / temporal-mvp / no-frame-dup / no-hme / weightp / weightb / no-analyze-src-pics / deblock=-3:-3 / no-sao / no-sao-non-deblock / rd=6 / selective-sao=0 / no-early-skip / rskip / no-fast-intra / no-tskip-fast / no-cu-lossless / b-intra / no-splitrd-skip / rdpenalty=0 / psy-rd=2.00 / psy-rdoq=1.00 / no-rd-refine / no-lossless / cbqpoffs=0 / crqpoffs=0 / rc=crf / crf=17.0 / qcomp=0.65 / qpstep=4 / stats-write=0 / stats-read=0 / vbv-maxrate=160000 / vbv-bufsize=160000 / vbv-init=0.9 / crf-max=0.0 / crf-min=0.0 / ipratio=1.30 / pbratio=1.20 / aq-mode=3 / aq-strength=0.85 / cutree / zone-count=0 / no-strict-cbr / qg-size=32 / no-rc-grain / qpmax=69 / qpmin=0 / no-const-vbv / sar=1 / overscan=0 / videoformat=5 / range=0 / colorprim=9 / transfer=16 / colormatrix=9 / chromaloc=1 / chromaloc-top=2 / chromaloc-bottom=2 / display-window=0 / master-display=G(13250,34500)B(7500,3000)R(34000,16000)WP(15635,16450)L(40000000,50) / cll=1059,385 / min-luma=0 / max-luma=1023 / log2-max-poc-lsb=8 / vui-timing-info / vui-hrd-info / slices=1 / no-opt-qp-pps / no-opt-ref-list-length-pps / no-multi-pass-opt-rps / scenecut-bias=0.05 / hist-threshold=0.03 / no-opt-cu-delta-qp / no-aq-motion / hdr10 / hdr10-opt / no-dhdr10-opt / no-idr-recovery-sei / analysis-reuse-level=0 / analysis-save-reuse-level=0 / analysis-load-reuse-level=0 / scale-factor=0 / refine-intra=0 / refine-inter=0 / refine-mv=1 / refine-ctu-distortion=0 / no-limit-sao / ctu-info=0 / no-lowpass-dct / refine-analysis-type=0 / copy-pic=1 / max-ausize-factor=1.0 / no-dynamic-refine / no-single-sei / no-hevc-aq / no-svt / no-field / qp-adaptation-range=1.00 / no-scenecut-aware-qpconformance-window-offsets / right=0 / bottom=0 / NTM4NzU= / decoder-max-rate=0
  36. Language                                 : English
  37. Default                                  : Yes
  38. Forced                                   : No
  39. Color range                              : Limited
  40. Color primaries                          : BT.2020
  41. Transfer characteristics                 : PQ
  42. Matrix coefficients                      : BT.2020 non-constant
  43. Mastering display color primaries        : Display P3
  44. Mastering display luminance              : min: 0.0050 cd/m2, max: 4000 cd/m2
  45. Maximum Content Light Level              : 1059 cd/m2
  46. Maximum Frame-Average Light Level        : 385 cd/m2
  47. Audio #1
  48. ID                                       : 2
  49. Format                                   : MLP FBA 16-ch
  50. Format/Info                              : Meridian Lossless Packing FBA with 16-channel presentation
  51. Commercial name                          : Dolby TrueHD with Dolby Atmos
  52. Codec ID                                 : A_TRUEHD
  53. Duration                                 : 2 h 3 min
  54. Bit rate mode                            : Variable
  55. Bit rate                                 : 3 981 kb/s
  56. Maximum bit rate                         : 7 494 kb/s
  57. Channel(s)                               : 8 channels
  58. Channel layout                           : L R C LFE Ls Rs Lb Rb
  59. Sampling rate                            : 48.0 kHz
  60. Frame rate                               : 1 200.000 FPS (40 SPF)
  61. Compression mode                         : Lossless
  62. Stream size                              : 3.45 GiB (24%)
  63. Title                                    : English Dolby TrueHD 7.1 (Atmos) @ 4621 kbps
  64. Language                                 : English
  65. Default                                  : Yes
  66. Forced                                   : No
  67. Number of dynamic objects                : 11
  68. Bed channel count                        : 1 channel
  69. Bed channel configuration                : LFE
  70. Audio #2
  71. ID                                       : 3
  72. Format                                   : AC-3
  73. Format/Info                              : Audio Coding 3
  74. Commercial name                          : Dolby Digital
  75. Codec ID                                 : A_AC3
  76. Duration                                 : 2 h 3 min
  77. Bit rate mode                            : Constant
  78. Bit rate                                 : 640 kb/s
  79. Channel(s)                               : 6 channels
  80. Channel layout                           : L R C LFE Ls Rs
  81. Sampling rate                            : 48.0 kHz
  82. Frame rate                               : 31.250 FPS (1536 SPF)
  83. Compression mode                         : Lossy
  84. Stream size                              : 567 MiB (4%)
  85. Title                                    : English AC3 5.1-EX @ 640 kbps
  86. Language                                 : English
  87. Service kind                             : Complete Main
  88. Default                                  : No
  89. Forced                                   : No
  90. Text #1
  91. ID                                       : 4
  92. Format                                   : PGS
  93. Codec ID                                 : S_HDMV/PGS
  94. Codec ID/Info                            : Picture based subtitle format used on BDs/HD-DVDs
  95. Duration                                 : 2 h 3 min
  96. Bit rate                                 : 28.7 kb/s
  97. Count of elements                        : 2884
  98. Stream size                              : 25.4 MiB (0%)
  99. Title                                    : Eng/SUP  SDH
  100. Language                                 : English
  101. Default                                  : No
  102. Forced                                   : No
  103. Text #2
  104. ID                                       : 5
  105. Format                                   : PGS
  106. Codec ID                                 : S_HDMV/PGS
  107. Codec ID/Info                            : Picture based subtitle format used on BDs/HD-DVDs
  108. Duration                                 : 1 h 58 min
  109. Bit rate                                 : 24.9 kb/s
  110. Count of elements                        : 2372
  111. Stream size                              : 21.0 MiB (0%)
  112. Title                                    : Eng/SUP
  113. Language                                 : English
  114. Default                                  : No
  115. Forced                                   : No
  116. Text #3
  117. ID                                       : 6
  118. Format                                   : PGS
  119. Codec ID                                 : S_HDMV/PGS
  120. Codec ID/Info                            : Picture based subtitle format used on BDs/HD-DVDs
  121. Duration                                 : 2 h 2 min
  122. Bit rate                                 : 21.3 kb/s
  123. Count of elements                        : 2404
  124. Stream size                              : 18.7 MiB (0%)
  125. Title                                    : Chs/SUP  原盘简体
  126. Language                                 : Chinese
  127. Default                                  : Yes
  128. Forced                                   : No
  129. Text #4
  130. ID                                       : 7
  131. Format                                   : PGS
  132. Codec ID                                 : S_HDMV/PGS
  133. Codec ID/Info                            : Picture based subtitle format used on BDs/HD-DVDs
  134. Duration                                 : 2 h 2 min
  135. Bit rate                                 : 21.1 kb/s
  136. Count of elements                        : 2414
  137. Stream size                              : 18.5 MiB (0%)
  138. Title                                    : Cht/SUP  原盘繁体(HK)
  139. Language                                 : Chinese
  140. Default                                  : No
  141. Forced                                   : No
  142. Text #5
  143. ID                                       : 8
  144. Format                                   : PGS
  145. Codec ID                                 : S_HDMV/PGS
  146. Codec ID/Info                            : Picture based subtitle format used on BDs/HD-DVDs
  147. Duration                                 : 2 h 2 min
  148. Bit rate                                 : 19.3 kb/s
  149. Count of elements                        : 2466
  150. Stream size                              : 16.9 MiB (0%)
  151. Title                                    : Cht/SUP  原盘繁体(TW)
  152. Language                                 : Chinese
  153. Default                                  : No
  154. Forced                                   : No
  155. Menu
  156. 00:00:00.000                             : en:第 01 章
  157. 00:05:07.682                             : en:第 02 章
  158. 00:12:13.650                             : en:第 03 章
  159. 00:19:59.615                             : en:第 04 章
  160. 00:26:29.588                             : en:第 05 章
  161. 00:32:15.892                             : en:第 06 章
  162. 00:38:30.725                             : en:第 07 章
  163. 00:45:47.495                             : en:第 08 章
  164. 00:52:57.091                             : en:第 09 章
  165. 00:57:15.766                             : en:第 10 章
  166. 01:05:06.903                             : en:第 11 章
  167. 01:11:38.753                             : en:第 12 章
  168. 01:18:24.325                             : en:第 13 章
  169. 01:24:32.401                             : en:第 14 章
  170. 01:31:39.994                             : en:第 15 章
  171. 01:43:06.222                             : en:第 16 章
复制代码

















保举请利用qBittorrent,utorrent,transmission等标准BT软件下载!以获得最快速度。奉求保种!





回复

使用道具 举报

蓝光币
72
发表于 2022-7-27 07:06:58 | 显示全部楼层

论坛不能没有像楼主这样的人才啊!我会一直支持蓝光电影网。
回复 支持 反对

使用道具 举报

蓝光币
72
发表于 2022-7-27 07:09:18 | 显示全部楼层
期待已久的蓝光原盘资源,楼主辛苦,希望论坛越办越好!
回复 支持 反对

使用道具 举报

蓝光币
128
发表于 2022-7-27 08:56:43 | 显示全部楼层

我看不错噢 谢谢楼主!蓝光电影网越来越好!
回复 支持 反对

使用道具 举报

蓝光币
18
发表于 2022-7-27 10:14:03 | 显示全部楼层

楼主太厉害了!楼主,电影应该很好看我觉得蓝光电影网真是个好地方!
回复 支持 反对

使用道具 举报

蓝光币
0
发表于 2022-7-27 10:27:51 | 显示全部楼层

楼主太厉害了!楼主,电影应该很好看我觉得蓝光电影网真是个好地方!
回复 支持 反对

使用道具 举报

蓝光币
208
发表于 2022-7-27 12:28:41 | 显示全部楼层
楼主发贴辛苦了,谢谢楼主分享!我觉得蓝光电影网是注册对了!
回复 支持 反对

使用道具 举报

蓝光币
1
发表于 2022-7-27 13:29:04 | 显示全部楼层
感谢楼主分享
回复 支持 反对

使用道具 举报

蓝光币
351
发表于 2022-7-27 14:39:13 | 显示全部楼层

楼主太厉害了!楼主,电影应该很好看我觉得蓝光电影网真是个好地方!
回复 支持 反对

使用道具 举报

蓝光币
25
发表于 2022-7-27 18:59:45 | 显示全部楼层
感谢楼主辛苦上传!!!!!!!
回复 支持 反对

使用道具 举报

懒得打字嘛,点击右侧快捷回复 【右侧内容,后台自定义】
您需要登录后才可以回帖 登录 | 立即加入

本版积分规则

Archiver|小黑屋| 蓝光电影网 |网站地图

Copyright © 2021 Comsenz Inc. Powered by 蓝光电影网

蓝光电影网

本站内容由用户自主分享和转载自互联网,转载目的在于传递更多信息,并不代表本网赞同其观点和对其真实性负责。

如有侵权、违反国家法律政策行为,请联系我们,我们会第一时间及时清除和处理!

举报反馈邮箱:[email protected]

快速回复 返回顶部 返回列表