找回密码

蓝光电影网

查看: 30|回复: 0

[剧情] 黄飞鸿之三:狮王争霸[国粤语配音/中文字幕].Once.Upon.a.Time.in.China.III.1992.CC.BluRay.1080p.HEVC.10bit.2Audio.MiniFHD-MOMOHD 6.24GB

[复制链接]
蓝光币
7
发表于 2022-7-28 01:49:59 | 显示全部楼层 |阅读模式


◎标  题 黄飞鸿之三:狮王争霸
◎译  名 黄飞鸿3 / 黄飞鸿之狮王争霸 / Once Upon a Time in China III
◎片  名 黃飛鴻之三獅王爭霸
◎年  代 1992
◎产  地 中国香港 / 中国大陆
◎类  别 剧情 / 行动 / 武侠 / 古装
◎语  言 粤语 / 汉语普通话
◎上映日期 1992-12-24(中国台湾) / 1993-02-11(中国香港)
◎IMDb评分 6.8/10 (6853人评价)
◎IMDb链接 https://www.imdb.com/title/tt0108592/
◎豆瓣评分 8.1/10 (128143人评价)
◎豆瓣链接 https://movie.douban.com/subject/1292704/
◎片  长 112分钟
◎导  演 徐克 Hark Tsui
◎编  剧 徐克 Hark Tsui
       张炭 Cheung Tan
       陈天璇 Tin-suen Chan
◎演  员 李连杰 Jet Li
       关之琳 Rosamund Kwan
       莫少聪 Siu Chung Mok
       熊欣欣 Xinxin Xiong
       刘洵 Shun Lau
       庄域飞 John Wakefield
       葛存壮 Cunzhuang Ge
       张春仲 Chunzhong Zhang
       孟瑾 Jin Meng
       李炳雷 Binglei Li
       廖静妮 Jingni Liao
       赵箭 Jian Zhao
       成志谷 Zhigu Cheng
       麦子善 Marco Mak
       吴思远 See-Yuen Ng
       胡伟立 Wai Lap Wu
       刘伟强 Andrew Lau
       刘春福 Chunfu Liu
       麦子善 Marco Mak
       林安儿 Angie Lam
       叶锦添 Timmy Yip
       来启箴 Qizhen Lai
       元彬 Bun Yuen
       邹文怀 Raymond Chow
       黄志明 Wong Chi-Ming
◎标  签 李连杰 / 行动 / 徐克 / 香港 / 武侠 / 香港电影 / 黄飞鸿 / 1993
◎简  介
  晚清末年,大清帝国摇摇欲倒。面临内奸来袭,慈禧太后激励官方习武抗敌。李鸿章为了巴结太后,举行起一年一届的“狮王争霸”大赛。“狮王争霸”实在就是各们各派舞起狮子头,以武力图取锦标。                                    
                                “狮王争霸”的消息一传出,各大门派纷纷摩拳擦掌,黑暗招兵买马。一时,都城门派抵触四起。黄飞鸿(李连杰 饰)上书李鸿章欲取消“狮王争霸”,无法李鸿章没有理睬。无法之下,黄飞鸿只好亲身加入“狮王争霸”,阻止各门派的自相残杀。                                    
                                “狮王争霸”终究开锣了!此日校场上灰尘飞扬,各门派自造的形象各异、杀伤力极强的“狮子头”袍笏退场。黄飞鸿亲身率领鬼脚七等徒弟也赶到了……
  1. ##### MediaInfo ######
  2. General
  3. Unique ID                                : 332148970210095479857917996049101725957 (0xF9E19094EE3C1ECCDE0CC775760FA105)
  4. Complete name                            : 黄飞鸿之狮王争霸.Once.Upon.a.Time.in.China.III.1992.CC.BluRay.1080p.HEVC.10bit.2Audio.MiniFHD-MOMOHD.mkv
  5. Format                                   : Matroska
  6. Format version                           : Version 2
  7. File size                                : 6.24 GiB
  8. Duration                                 : 1 h 52 min
  9. Overall bit rate                         : 7 966 kb/s
  10. Encoded date                             : UTC 2022-04-06 11:09:18
  11. Writing application                      : mkvmerge v42.0.0 ('Overtime') 64-bit
  12. Writing library                          : libebml v1.3.10 + libmatroska v1.5.2
  13. Video
  14. ID                                       : 1
  15. Format                                   : HEVC
  16. Format/Info                              : High Efficiency Video Coding
  17. Format profile                           : Main [email protected]@Main
  18. Codec ID                                 : V_MPEGH/ISO/HEVC
  19. Duration                                 : 1 h 52 min
  20. Bit rate                                 : 7 061 kb/s
  21. Width                                    : 1 920 pixels
  22. Height                                   : 818 pixels
  23. Display aspect ratio                     : 2.35:1
  24. Frame rate mode                          : Constant
  25. Frame rate                               : 23.976 (24000/1001/53875) FPS
  26. Color space                              : YUV
  27. Chroma subsampling                       : 4:2:0
  28. Bit depth                                : 10 bits
  29. Bits/(Pixel*Frame)                       : 0.188
  30. Stream size                              : 5.53 GiB (89%)
  31. Writing library                          : x265 3.4+2-73ca1d7be377:[Windows][GCC 6.3.0][64 bit] 10bit
  32. Encoding settings                        : cpuid=538751111039 / frame-threads=3 / numa-pools=8 / wpp / no-pmode / no-pme / no-psnr / no-ssim / log-level=2 / input-csp=1 / input-res=1920x818 / interlace=0 / total-frames=161376 / level-idc=0 / high-tier=1 / uhd-bd=0 / ref=3 / no-allow-non-conformance / no-repeat-headers / annexb / no-aud / no-hrd / info / hash=0 / no-temporal-layers / no-open-gop / min-keyint=23 / keyint=250 / gop-lookahead=0 / bframes=4 / b-adapt=2 / b-pyramid / bframe-bias=0 / rc-lookahead=20 / lookahead-slices=5 / NTM4NzU=uuDQuD2mJt9fsCf / scenecut=40 / hist-scenecut=0 / radl=0 / no-splice / no-intra-refresh / ctu=64 / min-cu-size=8 / no-rect / no-amp / max-tu-size=32 / tu-inter-depth=1 / tu-intra-depth=1 / limit-tu=0 / rdoq-level=0 / dynamic-rd=0.00 / no-ssim-rd / signhide / no-tskip / nr-intra=0 / nr-inter=0 / no-constrained-intra / no-strong-intra-smoothing / max-merge=3 / limit-refs=1 / no-limit-modes / me=1 / subme=2 / merange=57 / temporal-mvp / no-frame-dup / no-hme / weightp / no-weightb / no-analyze-src-pics / deblock=0:0 / no-sao / no-sao-non-deblock / rd=3 / selective-sao=0 / early-skip / rskip / no-fast-intra / no-tskip-fast / no-cu-lossless / b-intra / no-splitrd-skip / rdpenalty=0 / psy-rd=2.00 / psy-rdoq=0.00 / no-rd-refine / no-lossless / cbqpoffs=0 / crqpoffs=0 / rc=crf / crf=23.0 / qcomp=0.80 / qpstep=4 / stats-write=0 / stats-read=0 / ipratio=1.40 / pbratio=1.30 / aq-mode=2 / aq-strength=1.00 / cutree / zone-count=0 / no-strict-cbr / qg-size=32 / no-rc-grain / qpmax=69 / qpmin=0 / no-const-vbv / sar=1 / overscan=0 / videoformat=5 / range=0 / colorprim=2 / transfer=2 / colormatrix=2 / chromaloc=0 / display-window=0 / cll=0,0 / min-luma=0 / max-luma=1023 / log2-max-poc-lsb=8 / vui-timing-info / vui-hrd-info / slices=1 / no-opt-qp-pps / no-opt-ref-list-length-pps / no-multi-pass-opt-rps / scenecut-bias=0.05 / hist-threshold=0.01 / no-opt-cu-delta-qp / no-aq-motion / no-hdr10 / no-hdr10-opt / no-dhdr10-opt / no-idr-recovery-sei / analysis-reuse-level=0 / analysis-save-reuse-level=0 / analysis-load-reuse-level=0 / scale-factor=0 / refine-intra=0 / refine-inter=0 / refine-mv=1 / refine-ctu-distortion=0 / no-limit-sao / ctu-info=0 / no-lowpass-dct / refine-analysis-type=0 / copy-pic=1 / max-ausize-factor=1.0 / no-dynamic-refine / no-single-sei / no-hevc-aq / no-svt / no-field / qp-adaptation-range=1.00 / no-scenecut-aware-qpconformance-window-offsets / right=0 / bottom=0 / NTM4NzU= / decoder-max-rate=0
  33. Default                                  : Yes
  34. Forced                                   : No
  35. Audio #1
  36. ID                                       : 2
  37. Format                                   : AC-3
  38. Format/Info                              : Audio Coding 3
  39. Commercial name                          : Dolby Digital
  40. Codec ID                                 : A_AC3
  41. Duration                                 : 1 h 52 min
  42. Bit rate mode                            : Constant
  43. Bit rate                                 : 448 kb/s
  44. Channel(s)                               : 2 channels
  45. Channel layout                           : L R
  46. Sampling rate                            : 48.0 kHz
  47. Frame rate                               : 31.250 FPS (1536 SPF)
  48. Compression mode                         : Lossy
  49. Stream size                              : 359 MiB (6%)
  50. Language                                 : Chinese
  51. Service kind                             : Complete Main
  52. Default                                  : Yes
  53. Forced                                   : No
  54. Audio #2
  55. ID                                       : 3
  56. Format                                   : AC-3
  57. Format/Info                              : Audio Coding 3
  58. Commercial name                          : Dolby Digital
  59. Codec ID                                 : A_AC3
  60. Duration                                 : 1 h 52 min
  61. Bit rate mode                            : Constant
  62. Bit rate                                 : 448 kb/s
  63. Channel(s)                               : 2 channels
  64. Channel layout                           : L R
  65. Sampling rate                            : 48.0 kHz
  66. Frame rate                               : 31.250 FPS (1536 SPF)
  67. Compression mode                         : Lossy
  68. Stream size                              : 359 MiB (6%)
  69. Language                                 : Chinese
  70. Service kind                             : Complete Main
  71. Default                                  : No
  72. Forced                                   : No
  73. Text #1
  74. ID                                       : 4
  75. Format                                   : UTF-8
  76. Codec ID                                 : S_TEXT/UTF8
  77. Codec ID/Info                            : UTF-8 Plain Text
  78. Duration                                 : 1 h 49 min
  79. Bit rate                                 : 41 b/s
  80. Count of elements                        : 1468
  81. Stream size                              : 33.1 KiB (0%)
  82. Language                                 : Chinese
  83. Default                                  : Yes
  84. Forced                                   : No
  85. Text #2
  86. ID                                       : 5
  87. Format                                   : UTF-8
  88. Codec ID                                 : S_TEXT/UTF8
  89. Codec ID/Info                            : UTF-8 Plain Text
  90. Duration                                 : 1 h 49 min
  91. Bit rate                                 : 41 b/s
  92. Count of elements                        : 1468
  93. Stream size                              : 33.1 KiB (0%)
  94. Language                                 : Chinese
  95. Default                                  : No
  96. Forced                                   : No
  97. Text #3
  98. ID                                       : 6
  99. Format                                   : PGS
  100. Muxing mode                              : zlib
  101. Codec ID                                 : S_HDMV/PGS
  102. Codec ID/Info                            : Picture based subtitle format used on BDs/HD-DVDs
  103. Duration                                 : 1 h 49 min
  104. Bit rate                                 : 43.4 kb/s
  105. Count of elements                        : 2474
  106. Stream size                              : 33.8 MiB (1%)
  107. Language                                 : English
  108. Default                                  : No
  109. Forced                                   : No
复制代码

















保举请利用qBittorrent,utorrent,transmission等标准BT软件下载!以获得最快速度。奉求保种!





回复

使用道具 举报

懒得打字嘛,点击右侧快捷回复 【右侧内容,后台自定义】
您需要登录后才可以回帖 登录 | 立即加入

本版积分规则

Archiver|小黑屋| 蓝光电影网 |网站地图

Copyright © 2021 Comsenz Inc. Powered by 蓝光电影网

蓝光电影网

本站内容由用户自主分享和转载自互联网,转载目的在于传递更多信息,并不代表本网赞同其观点和对其真实性负责。

如有侵权、违反国家法律政策行为,请联系我们,我们会第一时间及时清除和处理!

举报反馈邮箱:[email protected]

快速回复 返回顶部 返回列表