找回密码

蓝光电影网

查看: 151|回复: 1

[剧情] 我的机器人女友[国日多音轨/简繁英字幕].Cyborg.Girl.2009.BluRay.1080p.x265.10bit.DDP.5.1-MiniHD 6.58GB

[复制链接]
蓝光币
8
发表于 2022-7-28 01:51:15 | 显示全部楼层 |阅读模式


◎标  题 我的机械人女友
◎译  名 我的女友是机械人 / 我的机械人女友 / Cyborg Girl
◎片  名 僕の彼女はサイボーグ
◎年  代 2008
◎产  地 日本
◎类  别 笑剧 / 恋爱 / 科幻
◎语  言 日语
◎上映日期 2009-07-28(中国大陆) / 2008-05-31(日本)
◎IMDb评分 6.9/10 (3846人评价)
◎IMDb链接 https://www.imdb.com/title/tt0929860/
◎豆瓣评分 7.5/10 (155739人评价)
◎豆瓣链接 https://movie.douban.com/subject/1978369/
◎片  长 115 分钟 / 103 分钟(韩国) / 120 分钟(日本)
◎导  演 郭在容 Jae-young Kwak
◎编  剧 郭在容 Jae-young Kwak
◎演  员 绫濑遥 Haruka Ayase
       小出惠介 Keisuke Koide
       阿井莉沙 Risa Ai
       蛭子能收 Yoshikazu Ebisu
       远藤宪一 Ken'ichi Endô
       伊武雅刀 Masatô Ibu
       桐谷健太 Kenta Kiritani
       小日向文世 Fumiyo Kohinata
       松本莉绪 Rio Matsumoto
       纳谷六朗 Rokurô Naya
       斋藤步 Ayumu Saitô
       铃之助 Suzunosuke
       Naoko Niya Naoko Niya
       佐藤惠 Megumi Satô
       竹中直人 Naoto Takenaka
       吉高由里子 Yuriko Yoshitaka
       田中圭 Kei Tanaka
       吉行和子 Kazuko Yoshiyuki
       田口浩正 Hiromasa Taguchi
       楯真由子 Mayuko Tate
◎标  签 恋爱 / 日本电影 / 日本 / 科幻 / 绫濑遥 / 小出惠介 / 僕の彼女はサイボーグ / 电影
◎简  介
    生日没有任何人祝愿,这样过着孤单生活的大门生次郎(小出惠介饰)在20岁生日那天忽然碰到了生射中的阿谁“她”(绫瀨遥饰)。二人共渡了一个美好的夜晚。是夜,“她”从次郎的眼前消失了。一年后的生日,本以为还将回归孤单生活的次郎再次碰到了“她”。这一次,“她”讲出了惊天的故事:“我是未来次郎你缔造的机械人,回到曩昔来庇护你免受灾难。”就这样,“她”住进了次郎家中,起头了与次郎的同居生活。灾难似乎没有分开次郎的意义,但次郎与她的豪情已在其中萌生。爱与时候的动人故事,保护未来的约定,起头明天的生活。
  1. ##### MediaInfo ######
  2. General
  3. Unique ID                                : 87763209887720719214249805240743338080 (0x420694532770C27C3C3F964E1681A060)
  4. Complete name                            : Cyborg.Girl.2009.BluRay.1080p.x265.10bit.DDP.5.1-MiniHD.mkv
  5. Format                                   : Matroska
  6. Format version                           : Version 4
  7. File size                                : 6.58 GiB
  8. Duration                                 : 2 h 0 min
  9. Overall bit rate                         : 7 801 kb/s
  10. Movie name                               : 僕の彼女はサイボーグ
  11. Encoded date                             : UTC 2021-01-21 11:48:56
  12. Writing application                      : mkvmerge v51.0.0 ('I Wish') 64-bit
  13. Writing library                          : libebml v1.4.0 + libmatroska v1.6.2
  14. Cover                                    : Yes
  15. Attachments                              : cover.jpg
  16. Video
  17. ID                                       : 1
  18. Format                                   : HEVC
  19. Format/Info                              : High Efficiency Video Coding
  20. Format profile                           : Main [email protected]@High
  21. Codec ID                                 : V_MPEGH/ISO/HEVC
  22. Duration                                 : 2 h 0 min
  23. Bit rate                                 : 6 104 kb/s
  24. Width                                    : 1 916 pixels
  25. Height                                   : 804 pixels
  26. Display aspect ratio                     : 2.40:1
  27. Frame rate mode                          : Constant
  28. Frame rate                               : 23.976 (24000/1001/53875) FPS
  29. Color space                              : YUV
  30. Chroma subsampling                       : 4:2:0
  31. Bit depth                                : 10 bits
  32. Bits/(Pixel*Frame)                       : 0.165
  33. Stream size                              : 5.15 GiB (78%)
  34. Writing library                          : x265 3.4+33-606265ac7:[Windows][MSVC 1928][64 bit] 10bit
  35. Encoding settings                        : cpuid=538751049583 / frame-threads=5 / numa-pools=20,20,20,20 / wpp / pmode / no-pme / no-psnr / no-ssim / log-level=2 / input-csp=1 / input-res=1916x804 / interlace=0 / total-frames=173712 / level-idc=0 / high-tier=1 / uhd-bd=0 / ref=4 / no-allow-non-conformance / no-repeat-headers / annexb / no-aud / no-hrd / info / hash=0 / no-temporal-layers / no-open-gop / min-keyint=1 / keyint=250 / gop-lookahead=0 / bframes=6 / b-adapt=2 / b-pyramid / bframe-bias=0 / rc-lookahead=80 / lookahead-slices=0 / NTM4NzU=uuDQuD2mJt9fsCf / scenecut=40 / hist-scenecut=0 / radl=0 / no-splice / no-intra-refresh / ctu=32 / min-cu-size=8 / no-rect / no-amp / max-tu-size=32 / tu-inter-depth=4 / tu-intra-depth=4 / limit-tu=0 / rdoq-level=2 / dynamic-rd=0.00 / no-ssim-rd / signhide / tskip / nr-intra=0 / nr-inter=0 / no-constrained-intra / strong-intra-smoothing / max-merge=5 / limit-refs=0 / no-limit-modes / me=3 / subme=7 / merange=44 / temporal-mvp / no-frame-dup / no-hme / weightp / weightb / no-analyze-src-pics / deblock=-3:-3 / no-sao / no-sao-non-deblock / rd=4 / selective-sao=0 / no-early-skip / no-rskip / no-fast-intra / no-tskip-fast / no-cu-lossless / b-intra / no-splitrd-skip / rdpenalty=0 / psy-rd=1.50 / psy-rdoq=1.00 / no-rd-refine / no-lossless / cbqpoffs=-2 / crqpoffs=-2 / rc=crf / crf=21.0 / qcomp=0.65 / qpstep=4 / stats-write=0 / stats-read=0 / vbv-maxrate=160000 / vbv-bufsize=160000 / vbv-init=0.9 / min-vbv-fullness=50.0 / max-vbv-fullness=80.0 / crf-max=0.0 / crf-min=0.0 / ipratio=1.30 / pbratio=1.20 / aq-mode=2 / aq-strength=0.90 / no-cutree / zone-count=0 / no-strict-cbr / qg-size=8 / no-rc-grain / qpmax=69 / qpmin=0 / no-const-vbv / sar=0 / overscan=0 / videoformat=5 / range=0 / colorprim=1 / transfer=1 / colormatrix=1 / chromaloc=0 / display-window=0 / cll=0,0 / min-luma=0 / max-luma=1023 / log2-max-poc-lsb=8 / vui-timing-info / vui-hrd-info / slices=1 / no-opt-qp-pps / no-opt-ref-list-length-pps / no-multi-pass-opt-rps / scenecut-bias=0.05 / hist-threshold=0.03 / no-opt-cu-delta-qp / no-aq-motion / no-hdr10 / no-hdr10-opt / no-dhdr10-opt / no-idr-recovery-sei / analysis-reuse-level=0 / analysis-save-reuse-level=0 / analysis-load-reuse-level=0 / scale-factor=0 / refine-intra=0 / refine-inter=0 / refine-mv=1 / refine-ctu-distortion=0 / no-limit-sao / ctu-info=0 / no-lowpass-dct / refine-analysis-type=0 / copy-pic=1 / max-ausize-factor=1.0 / no-dynamic-refine / no-single-sei / no-hevc-aq / no-svt / no-field / qp-adaptation-range=1.00 / scenecut-aware-qp=0conformance-window-offsets / right=0 / bottom=0 / NTM4NzU= / decoder-max-rate=0 / no-vbv-live-multi-pass
  36. Default                                  : Yes
  37. Forced                                   : No
  38. Color range                              : Limited
  39. Color primaries                          : BT.709
  40. Transfer characteristics                 : BT.709
  41. Matrix coefficients                      : BT.709
  42. Audio #1
  43. ID                                       : 2
  44. Format                                   : E-AC-3
  45. Format/Info                              : Enhanced AC-3
  46. Commercial name                          : Dolby Digital Plus
  47. Codec ID                                 : A_EAC3
  48. Duration                                 : 2 h 0 min
  49. Bit rate mode                            : Constant
  50. Bit rate                                 : 1 023 kb/s
  51. Channel(s)                               : 6 channels
  52. Channel layout                           : L R C LFE Ls Rs
  53. Sampling rate                            : 48.0 kHz
  54. Frame rate                               : 93.750 FPS (512 SPF)
  55. Compression mode                         : Lossy
  56. Stream size                              : 884 MiB (13%)
  57. Language                                 : Japanese
  58. Service kind                             : Complete Main
  59. Default                                  : Yes
  60. Forced                                   : No
  61. Audio #2
  62. ID                                       : 3
  63. Format                                   : E-AC-3
  64. Format/Info                              : Enhanced AC-3
  65. Commercial name                          : Dolby Digital Plus
  66. Codec ID                                 : A_EAC3
  67. Duration                                 : 2 h 0 min
  68. Bit rate mode                            : Constant
  69. Bit rate                                 : 640 kb/s
  70. Channel(s)                               : 6 channels
  71. Channel layout                           : L R C LFE Ls Rs
  72. Sampling rate                            : 48.0 kHz
  73. Frame rate                               : 62.500 FPS (768 SPF)
  74. Compression mode                         : Lossy
  75. Stream size                              : 553 MiB (8%)
  76. Language                                 : Chinese
  77. Service kind                             : Complete Main
  78. Default                                  : No
  79. Forced                                   : No
  80. Text #1
  81. ID                                       : 4
  82. ID in the original source medium         : 4608 (0x1200)
  83. Format                                   : PGS
  84. Muxing mode                              : zlib
  85. Codec ID                                 : S_HDMV/PGS
  86. Codec ID/Info                            : Picture based subtitle format used on BDs/HD-DVDs
  87. Duration                                 : 1 h 59 min
  88. Bit rate                                 : 19.4 kb/s
  89. Count of elements                        : 2300
  90. Stream size                              : 16.6 MiB (0%)
  91. Language                                 : Japanese
  92. Default                                  : No
  93. Forced                                   : No
  94. Original source medium                   : Blu-ray
  95. Text #2
  96. ID                                       : 5
  97. ID in the original source medium         : 4609 (0x1201)
  98. Format                                   : PGS
  99. Muxing mode                              : zlib
  100. Codec ID                                 : S_HDMV/PGS
  101. Codec ID/Info                            : Picture based subtitle format used on BDs/HD-DVDs
  102. Duration                                 : 1 h 54 min
  103. Bit rate                                 : 15.2 kb/s
  104. Count of elements                        : 1599
  105. Stream size                              : 12.5 MiB (0%)
  106. Language                                 : English
  107. Default                                  : No
  108. Forced                                   : No
  109. Original source medium                   : Blu-ray
  110. Text #3
  111. ID                                       : 6
  112. ID in the original source medium         : 4610 (0x1202)
  113. Format                                   : PGS
  114. Muxing mode                              : zlib
  115. Codec ID                                 : S_HDMV/PGS
  116. Codec ID/Info                            : Picture based subtitle format used on BDs/HD-DVDs
  117. Duration                                 : 1 h 55 min
  118. Bit rate                                 : 16.9 kb/s
  119. Count of elements                        : 1698
  120. Stream size                              : 14.0 MiB (0%)
  121. Title                                    : CHS
  122. Language                                 : Chinese
  123. Default                                  : Yes
  124. Forced                                   : No
  125. Original source medium                   : Blu-ray
  126. Text #4
  127. ID                                       : 7
  128. ID in the original source medium         : 4611 (0x1203)
  129. Format                                   : PGS
  130. Muxing mode                              : zlib
  131. Codec ID                                 : S_HDMV/PGS
  132. Codec ID/Info                            : Picture based subtitle format used on BDs/HD-DVDs
  133. Duration                                 : 1 h 55 min
  134. Bit rate                                 : 17.4 kb/s
  135. Count of elements                        : 1698
  136. Stream size                              : 14.4 MiB (0%)
  137. Title                                    : CHT
  138. Language                                 : Chinese
  139. Default                                  : No
  140. Forced                                   : No
  141. Original source medium                   : Blu-ray
  142. Menu
  143. 00:00:00.000                             : en:第 01 章
  144. 00:02:13.716                             : en:第 02 章
  145. 00:08:17.330                             : en:第 03 章
  146. 00:19:23.495                             : en:第 04 章
  147. 00:25:24.773                             : en:第 05 章
  148. 00:30:11.601                             : en:第 06 章
  149. 00:36:49.290                             : en:第 07 章
  150. 00:43:00.578                             : en:第 08 章
  151. 00:49:54.116                             : en:第 09 章
  152. 00:52:43.618                             : en:第 10 章
  153. 01:04:30.366                             : en:第 11 章
  154. 01:14:28.255                             : en:第 12 章
  155. 01:20:08.553                             : en:第 13 章
  156. 01:24:59.594                             : en:第 14 章
  157. 01:40:12.006                             : en:第 15 章
  158. 01:42:46.160                             : en:第 16 章
  159. 01:46:45.565                             : en:第 17 章
  160. 01:55:22.248                             : en:第 18 章
复制代码



保举请利用qBittorrent,utorrent,transmission等标准BT软件下载!以获得最快速度。奉求保种!





回复

使用道具 举报

蓝光币
234
发表于 2022-7-29 23:15:55 | 显示全部楼层
楼主发贴辛苦了,谢谢楼主分享!我觉得蓝光电影网是注册对了!
回复 支持 反对

使用道具 举报

懒得打字嘛,点击右侧快捷回复 【右侧内容,后台自定义】
您需要登录后才可以回帖 登录 | 立即加入

本版积分规则

Archiver|小黑屋| 蓝光电影网 |网站地图

Copyright © 2021 Comsenz Inc. Powered by 蓝光电影网

蓝光电影网

本站内容由用户自主分享和转载自互联网,转载目的在于传递更多信息,并不代表本网赞同其观点和对其真实性负责。

如有侵权、违反国家法律政策行为,请联系我们,我们会第一时间及时清除和处理!

举报反馈邮箱:[email protected]

快速回复 返回顶部 返回列表