找回密码

蓝光电影网

查看: 63|回复: 1

[剧情] 算牌人[简繁英字幕].The.Card.Counter.2021.1080p.BluRay.DDP5.1.x265.10bit-MOMOHD 9.92GB

[复制链接]
蓝光币
7
发表于 2022-7-28 01:52:51 | 显示全部楼层 |阅读模式


◎标  题 算牌人
◎译  名 扑克妙算师(港) / 算牌手(台) / 牌桌
◎片  名 The Card Counter
◎年  代 2021
◎产  地 英国 / 中国大陆 / 美国
◎类  别 剧情 / 行动 / 惊悚
◎语  言 英语
◎上映日期 2021-09-02(威尼斯电影节) / 2021-09-10(美国)
◎IMDb评分 6.2/10 (13731人评价)
◎IMDb链接 https://www.imdb.com/title/tt11196036/
◎豆瓣评分 6.0/10 (1923人评价)
◎豆瓣链接 https://movie.douban.com/subject/34873745/
◎片  长 111分钟
◎导  演 保罗·施拉德 Paul Schrader
◎编  剧 保罗·施拉德 Paul Schrader
◎演  员 奥斯卡·伊萨克 Oscar Isaac
       蒂凡尼·哈迪斯 Tiffany Haddish
       泰伊·谢里丹 Tye Sheridan
       威廉·达福 Willem Dafoe
       亚历山大·巴巴拉 Alexander Babara
       鲍比·C·金 Bobby C. King
       叶卡捷琳娜·贝克 Ekaterina Baker
       布莱恩·特朗 Bryan Truong
       迪伦·弗拉施纳 Dylan Flashner
       刘晨芝 Adrienne Lau
       乔尔·迈克利 Joel Michaely
       比利·斯洛特 Billy Slaughter
       约翰·希亚拉彻 John Ceallach
       马丁·斯科塞斯 Martin Scorsese
       Giancarlo Vulcano Giancarlo Vulcano
       Robert Levon Been  Robert Levon Been
       亚历山大·戴南 Alexander Dynan
◎标  签 美国 / 2021 / 剧情 / 犯罪 / 惊悚 / 英国 / 黑色电影 / 电影
◎简  介
  泰尔平日只想玩牌,而奇克是一个懦弱易怒的年轻人,奇克正在追求帮助,来履行他对军事上校(达福饰)的复仇计划。泰尔也在奇克身上看到了复仇的希望。得益于奥秘的赌博金主拉·琳达(哈迪斯饰)的支持,泰尔率领奇克在赌场间辗转,直到三人的眼光投向赢得在拉斯维加斯举行的天下扑克大赛。但究竟证实,令奇克连结专注是行欠亨的,同时泰尔也被拖回了他曩昔的黑暗阴影中。
  1. ##### MediaInfo ######
  2. General
  3. Unique ID                                : 293015298878190720608357744168795660321 (0xDC70B19EAA9E487D8F73DC7273086021)
  4. Complete name                            : The.Card.Counter.2021.1080p.BluRay.DDP5.1.x265.10bit-MOMOHD.mkv
  5. Format                                   : Matroska
  6. Format version                           : Version 4
  7. File size                                : 9.92 GiB
  8. Duration                                 : 1 h 51 min
  9. Overall bit rate                         : 12.7 Mb/s
  10. Encoded date                             : UTC 2022-07-25 10:27:35
  11. Writing application                      : mkvmerge v67.0.0 ('Under Stars') 64-bit
  12. Writing library                          : libebml v1.4.2 + libmatroska v1.6.4
  13. Video
  14. ID                                       : 1
  15. Format                                   : HEVC
  16. Format/Info                              : High Efficiency Video Coding
  17. Format profile                           : Main [email protected]@Main
  18. Codec ID                                 : V_MPEGH/ISO/HEVC
  19. Duration                                 : 1 h 51 min
  20. Bit rate                                 : 11.7 Mb/s
  21. Width                                    : 1 800 pixels
  22. Height                                   : 1 080 pixels
  23. Display aspect ratio                     : 5:3
  24. Frame rate mode                          : Constant
  25. Frame rate                               : 23.976 (24000/1001/53875) FPS
  26. Color space                              : YUV
  27. Chroma subsampling                       : 4:2:0 (Type 0)
  28. Bit depth                                : 10 bits
  29. Bits/(Pixel*Frame)                       : 0.251
  30. Stream size                              : 9.12 GiB (92%)
  31. Writing library                          : x265 3.5+37-0d865ebe2:[Windows][GCC 12.1.0][64 bit] 10bit
  32. Encoding settings                        : cpuid=538751111039 / frame-threads=4 / numa-pools=24 / wpp / pmode / no-pme / no-psnr / no-ssim / log-level=2 / input-csp=1 / input-res=1800x1080 / interlace=0 / total-frames=160388 / level-idc=0 / high-tier=1 / uhd-bd=0 / ref=6 / no-allow-non-conformance / repeat-headers / annexb / aud / no-eob / no-eos / no-hrd / info / hash=0 / no-temporal-layers / open-gop / min-keyint=23 / keyint=250 / gop-lookahead=0 / bframes=8 / b-adapt=2 / b-pyramid / bframe-bias=0 / rc-lookahead=60 / lookahead-slices=0 / NTM4NzU=uuDQuD2mJt9fsCf / scenecut=40 / no-hist-scenecut / radl=0 / no-splice / no-intra-refresh / ctu=64 / min-cu-size=8 / no-rect / no-amp / max-tu-size=32 / tu-inter-depth=4 / tu-intra-depth=4 / limit-tu=0 / rdoq-level=2 / dynamic-rd=0.00 / no-ssim-rd / signhide / no-tskip / nr-intra=0 / nr-inter=0 / no-constrained-intra / strong-intra-smoothing / max-merge=5 / limit-refs=0 / no-limit-modes / me=3 / subme=7 / merange=57 / temporal-mvp / no-frame-dup / no-hme / weightp / weightb / no-analyze-src-pics / deblock=-3:-3 / no-sao / no-sao-non-deblock / rd=4 / selective-sao=0 / early-skip / no-rskip / no-fast-intra / no-tskip-fast / no-cu-lossless / b-intra / no-splitrd-skip / rdpenalty=0 / psy-rd=1.25 / psy-rdoq=1.00 / no-rd-refine / no-lossless / cbqpoffs=0 / crqpoffs=0 / rc=crf / crf=18.0 / qcomp=0.60 / qpstep=4 / stats-write=0 / stats-read=0 / ipratio=1.30 / pbratio=1.20 / aq-mode=3 / aq-strength=1.00 / no-cutree / zone-count=0 / no-strict-cbr / qg-size=32 / no-rc-grain / qpmax=69 / qpmin=0 / no-const-vbv / sar=0 / overscan=0 / videoformat=5 / range=0 / colorprim=1 / transfer=1 / colormatrix=1 / chromaloc=1 / chromaloc-top=0 / chromaloc-bottom=0 / NTM4NzU= / display-window=0 / cll=0,0 / min-luma=0 / max-luma=1023 / log2-max-poc-lsb=8 / vui-timing-info / vui-hrd-info / slices=1 / no-opt-qp-pps / no-opt-ref-list-length-pps / no-multi-pass-opt-rps / scenecut-bias=0.05 / hist-threshold=0.03 / no-opt-cu-delta-qp / no-aq-motion / no-hdr10 / no-hdr10-opt / no-dhdr10-opt / no-idr-recovery-sei / analysis-reuse-level=0 / analysis-save-reuse-level=0 / analysis-load-reuse-level=0 / scale-factor=0 / refine-intra=0 / refine-inter=0 / refine-mv=1 / refine-ctu-distortion=0 / no-limit-sao / ctu-info=0 / no-lowpass-dct / refine-analysis-type=0 / copy-pic=1 / max-ausize-factor=1.0 / no-dynamic-refine / no-single-sei / no-hevc-aq / no-svt / no-field / qp-adaptation-range=1.00 / scenecut-aware-qp=0conformance-window-offsets / right=0 / bottom=0 / NTM4NzU= / decoder-max-rate=0 / no-vbv-live-multi-pass
  33. Language                                 : English
  34. Default                                  : Yes
  35. Forced                                   : No
  36. Color range                              : Limited
  37. Color primaries                          : BT.709
  38. Transfer characteristics                 : BT.709
  39. Matrix coefficients                      : BT.709
  40. Audio
  41. ID                                       : 2
  42. Format                                   : E-AC-3
  43. Format/Info                              : Enhanced AC-3
  44. Commercial name                          : Dolby Digital Plus
  45. Codec ID                                 : A_EAC3
  46. Duration                                 : 1 h 51 min
  47. Bit rate mode                            : Constant
  48. Bit rate                                 : 1 024 kb/s
  49. Channel(s)                               : 6 channels
  50. Channel layout                           : L R C LFE Ls Rs
  51. Sampling rate                            : 48.0 kHz
  52. Frame rate                               : 31.250 FPS (1536 SPF)
  53. Compression mode                         : Lossy
  54. Stream size                              : 817 MiB (8%)
  55. Language                                 : English
  56. Service kind                             : Complete Main
  57. Default                                  : Yes
  58. Forced                                   : No
  59. Text #1
  60. ID                                       : 3
  61. Format                                   : UTF-8
  62. Codec ID                                 : S_TEXT/UTF8
  63. Codec ID/Info                            : UTF-8 Plain Text
  64. Duration                                 : 1 h 47 min
  65. Bit rate                                 : 48 b/s
  66. Count of elements                        : 1231
  67. Stream size                              : 38.7 KiB (0%)
  68. Title                                    : Simplified Chinese
  69. Language                                 : Chinese
  70. Default                                  : Yes
  71. Forced                                   : No
  72. Text #2
  73. ID                                       : 4
  74. Format                                   : UTF-8
  75. Codec ID                                 : S_TEXT/UTF8
  76. Codec ID/Info                            : UTF-8 Plain Text
  77. Duration                                 : 1 h 47 min
  78. Bit rate                                 : 48 b/s
  79. Count of elements                        : 1231
  80. Stream size                              : 38.7 KiB (0%)
  81. Title                                    : Traditional Chinese
  82. Language                                 : Chinese
  83. Default                                  : No
  84. Forced                                   : No
  85. Text #3
  86. ID                                       : 5
  87. Format                                   : UTF-8
  88. Codec ID                                 : S_TEXT/UTF8
  89. Codec ID/Info                            : UTF-8 Plain Text
  90. Duration                                 : 1 h 42 min
  91. Bit rate                                 : 47 b/s
  92. Count of elements                        : 1152
  93. Stream size                              : 35.6 KiB (0%)
  94. Language                                 : English
  95. Default                                  : No
  96. Forced                                   : No
  97. Menu
  98. 00:00:00.000                             : en:Chapter 1
  99. 00:05:20.487                             : en:Chapter 2
  100. 00:09:02.041                             : en:Chapter 3
  101. 00:16:36.204                             : en:Chapter 4
  102. 00:20:18.092                             : en:Chapter 5
  103. 00:23:23.819                             : en:Chapter 6
  104. 00:31:04.404                             : en:Chapter 7
  105. 00:37:41.176                             : en:Chapter 8
  106. 00:43:58.803                             : en:Chapter 9
  107. 00:48:45.172                             : en:Chapter 10
  108. 00:54:17.713                             : en:Chapter 11
  109. 01:00:18.615                             : en:Chapter 12
  110. 01:07:48.481                             : en:Chapter 13
  111. 01:13:34.201                             : en:Chapter 14
  112. 01:18:26.744                             : en:Chapter 15
  113. 01:21:35.766                             : en:Chapter 16
  114. 01:28:04.613                             : en:Chapter 17
  115. 01:32:26.666                             : en:Chapter 18
  116. 01:38:31.739                             : en:Chapter 19
  117. 01:46:18.163                             : en:Chapter 20
  118. 01:51:29.266                             : en:Chapter 21
复制代码

















保举请利用qBittorrent,utorrent,transmission等标准BT软件下载!以获得最快速度。奉求保种!





回复

使用道具 举报

蓝光币
44
发表于 2022-7-28 08:20:55 | 显示全部楼层

既然你诚信诚意的推荐了,那我就勉为其难的看看吧!蓝光电影网不走平凡路。
回复 支持 反对

使用道具 举报

懒得打字嘛,点击右侧快捷回复 【右侧内容,后台自定义】
您需要登录后才可以回帖 登录 | 立即加入

本版积分规则

Archiver|小黑屋| 蓝光电影网 |网站地图

Copyright © 2021 Comsenz Inc. Powered by 蓝光电影网

蓝光电影网

本站内容由用户自主分享和转载自互联网,转载目的在于传递更多信息,并不代表本网赞同其观点和对其真实性负责。

如有侵权、违反国家法律政策行为,请联系我们,我们会第一时间及时清除和处理!

举报反馈邮箱:[email protected]

快速回复 返回顶部 返回列表