找回密码

蓝光电影网

查看: 412|回复: 7

[2160p] 绿灯侠:绿灯长明 Green.Lantern.Beware.My.Power.2022.2160p.BluRay.x264.8bit.SDR.DTS-HD.MA.5.1-SWTYBLZ 16.59GB

[复制链接]
蓝光币
1020
发表于 2022-7-28 09:13:21 | 显示全部楼层 |阅读模式


◎标  题 绿灯侠:绿灯长明
◎片  名 Green Lantern: Beware My Power
◎年  代 2022
◎产  地 美国
◎类  别 动画
◎语  言 英语
◎IMDb链接 https://www.imdb.com/title//
◎豆瓣链接 https://movie.douban.com/subject/35633924/
◎简  介

  During today’s DC Fandome event a number of animated films were announced for the summer of 2022. Among them is Green Lantern: Beware My Power. No details were disclosed about the plot, characters, or casting.
  1. Video
  2. ID                                       : 1
  3. Format                                   : AVC
  4. Format/Info                              : Advanced Video Codec
  5. Format profile                           : [email protected]
  6. Format settings                          : CABAC / 5 Ref Frames
  7. Format settings, CABAC                   : Yes
  8. Format settings, Reference frames        : 5 frames
  9. Codec ID                                 : V_MPEG4/ISO/AVC
  10. Duration                                 : 1 h 27 min
  11. Bit rate                                 : 24.3 Mb/s
  12. Width                                    : 3 840 pixels
  13. Height                                   : 2 160 pixels
  14. Display aspect ratio                     : 16:9
  15. Frame rate mode                          : Constant
  16. Frame rate                               : 23.976 (24000/1001/189150) FPS
  17. Color space                              : YUV
  18. Chroma subsampling                       : 4:2:0
  19. Bit depth                                : 8 bits
  20. Scan type                                : Progressive
  21. Bits/(Pixel*Frame)                       : 0.122
  22. Stream size                              : 14.9 GiB (90%)
  23. Writing library                          : x264 core 157 r2935 545de2f
  24. Encoding settings                        : cabac=1 / ref=5 / deblock=1:1:1 / analyse=0x3:0x113 / me=umh / subme=10 / psy=1 / psy_rd=0.40:0.00 / mixed_ref=1 / me_range=48 / chroma_me=1 / trellis=2 / 8x8dct=1 / cqm=0 / deadzone=21,11 / fast_pskip=1 / chroma_qp_offset=-2 / threads=48 / lookahead_threads=5 / sliced_threads=0 / nr=0 / decimate=0 / interlaced=0 / bluray_compat=0 / constrained_intra=0 / bframes=5 / b_pyramid=2 / b_adapt=2 / b_bias=0 / direct=3 / weightb=1 / open_gop=0 / weightp=2 / keyint=250 / keyint_min=23 / scenecut=40 / intra_refresh=0 / rc_lookahead=50 / rc=crf / mbtree=1 / crf=14.0 / qcomp=0.60 / qpmin=0 / qpmax=69 / qpstep=4 / ip_ratio=1.40 / aq=1:0.60
  25. Default                                  : Yes
  26. Forced                                   : No

  27. Audio #1
  28. ID                                       : 2
  29. ID in the original source medium         : 4352 (0x1100)
  30. Format                                   : DTS XLL
  31. Format/Info                              : Digital Theater Systems
  32. Commercial name                          : DTS-HD Master Audio
  33. Codec ID                                 : A_DTS
  34. Duration                                 : 1 h 27 min
  35. Bit rate mode                            : Variable
  36. Bit rate                                 : 2 049 kb/s
  37. Channel(s)                               : 6 channels
  38. Channel layout                           : C L R Ls Rs LFE
  39. Sampling rate                            : 48.0 kHz
  40. Frame rate                               : 93.750 FPS (512 SPF)
  41. Bit depth                                : 24 bits
  42. Compression mode                         : Lossless
  43. Stream size                              : 1.25 GiB (8%)
  44. Title                                    : DTS-HD MA 5.1
  45. Language                                 : English
  46. Default                                  : Yes
  47. Forced                                   : No
  48. Original source medium                   : Blu-ray

  49. Audio #2
  50. ID                                       : 3
  51. Format                                   : AC-3
  52. Format/Info                              : Audio Coding 3
  53. Commercial name                          : Dolby Digital
  54. Codec ID                                 : A_AC3
  55. Duration                                 : 1 h 27 min
  56. Bit rate mode                            : Constant
  57. Bit rate                                 : 640 kb/s
  58. Channel(s)                               : 6 channels
  59. Channel layout                           : L R C LFE Ls Rs
  60. Sampling rate                            : 48.0 kHz
  61. Frame rate                               : 31.250 FPS (1536 SPF)
  62. Compression mode                         : Lossy
  63. Stream size                              : 401 MiB (2%)
  64. Title                                    : DD 5.1
  65. Language                                 : English
  66. Service kind                             : Complete Main
  67. Default                                  : No
  68. Forced                                   : No

  69. Text #1
  70. ID                                       : 4
  71. Format                                   : UTF-8
  72. Codec ID                                 : S_TEXT/UTF8
  73. Codec ID/Info                            : UTF-8 Plain Text
  74. Duration                                 : 1 h 23 min
  75. Bit rate                                 : 45 b/s
  76. Frame rate                               : 0.167 FPS
  77. Count of elements                        : 838
  78. Stream size                              : 28.2 KiB (0%)
  79. Language                                 : English
  80. Default                                  : Yes
  81. Forced                                   : No

  82. Text #2
  83. ID                                       : 5
  84. Format                                   : UTF-8
  85. Codec ID                                 : S_TEXT/UTF8
  86. Codec ID/Info                            : UTF-8 Plain Text
  87. Duration                                 : 1 h 24 min
  88. Bit rate                                 : 49 b/s
  89. Frame rate                               : 0.188 FPS
  90. Count of elements                        : 954
  91. Stream size                              : 30.4 KiB (0%)
  92. Title                                    : SDH
  93. Language                                 : English
  94. Default                                  : No
  95. Forced                                   : No

  96. Text #3
  97. ID                                       : 6
  98. ID in the original source medium         : 4768 (0x12A0)
  99. Format                                   : PGS
  100. Muxing mode                              : zlib
  101. Codec ID                                 : S_HDMV/PGS
  102. Codec ID/Info                            : Picture based subtitle format used on BDs/HD-DVDs
  103. Duration                                 : 1 h 24 min
  104. Bit rate                                 : 30.4 kb/s
  105. Frame rate                               : 0.377 FPS
  106. Count of elements                        : 1914
  107. Stream size                              : 18.4 MiB (0%)
  108. Language                                 : English
  109. Default                                  : No
  110. Forced                                   : No
  111. Original source medium                   : Blu-ray

  112. Text #4
  113. ID                                       : 7
  114. ID in the original source medium         : 4769 (0x12A1)
  115. Format                                   : PGS
  116. Muxing mode                              : zlib
  117. Codec ID                                 : S_HDMV/PGS
  118. Codec ID/Info                            : Picture based subtitle format used on BDs/HD-DVDs
  119. Duration                                 : 1 h 26 min
  120. Bit rate                                 : 31.8 kb/s
  121. Frame rate                               : 0.323 FPS
  122. Count of elements                        : 1674
  123. Stream size                              : 19.6 MiB (0%)
  124. Language                                 : French
  125. Default                                  : No
  126. Forced                                   : No
  127. Original source medium                   : Blu-ray

  128. Text #5
  129. ID                                       : 8
  130. ID in the original source medium         : 4770 (0x12A2)
  131. Format                                   : PGS
  132. Muxing mode                              : zlib
  133. Codec ID                                 : S_HDMV/PGS
  134. Codec ID/Info                            : Picture based subtitle format used on BDs/HD-DVDs
  135. Duration                                 : 1 h 24 min
  136. Bit rate                                 : 27.8 kb/s
  137. Frame rate                               : 0.329 FPS
  138. Count of elements                        : 1666
  139. Stream size                              : 16.8 MiB (0%)
  140. Language                                 : Spanish
  141. Default                                  : No
  142. Forced                                   : No
  143. Original source medium                   : Blu-ray

  144. Menu
  145. 00:00:00.000                             : en:Chapter 01
  146. 00:05:03.303                             : en:Chapter 02
  147. 00:14:52.892                             : en:Chapter 03
  148. 00:23:46.133                             : en:Chapter 04
  149. 00:29:35.356                             : en:Chapter 05
  150. 00:35:36.801                             : en:Chapter 06
  151. 00:45:13.293                             : en:Chapter 07
  152. 00:55:12.809                             : en:Chapter 08
  153. 01:04:57.101                             : en:Chapter 09
  154. 01:11:03.384                             : en:Chapter 10
  155. 01:18:26.368                             : en:Chapter 11
  156. 01:24:52.504                             : en:Chapter 12
复制代码











                                       
                                       

                                       
                                       
                                       




绿灯侠:绿灯长明 Green.Lantern.Beware.My.Power.2022.2160p.BluRay.x264.8bit.SDR.DTS-HD.MA.5.1-SWTYBLZ 16.59GB

Green.Lantern.Beware.My.Power.2022.2160p.BluRay.x264.8bit.SDR.DTS-HD.MA.5.1-SWTY.torrent

21.48 KB, 下载次数: 21, 下载积分: 蓝光币 -2

回复

使用道具 举报

蓝光币
105
发表于 2022-7-28 09:22:10 | 显示全部楼层

感谢楼主的无私分享!要想蓝光电影网好 就靠你我他
回复 支持 反对

使用道具 举报

蓝光币
167
发表于 2022-7-28 09:43:35 | 显示全部楼层

这个帖子不回对不起自己!我想我是一天也不能离开蓝光电影网。
回复 支持 反对

使用道具 举报

蓝光币
13
发表于 2022-7-28 11:19:24 | 显示全部楼层

楼主太厉害了!楼主,电影应该很好看我觉得蓝光电影网真是个好地方!
回复 支持 反对

使用道具 举报

蓝光币
8
发表于 2022-7-28 16:15:52 | 显示全部楼层
11111111111111111111
回复 支持 反对

使用道具 举报

蓝光币
207
发表于 2022-7-28 17:30:08 | 显示全部楼层
感谢分享
回复

使用道具 举报

蓝光币
208
发表于 2022-7-28 17:47:12 | 显示全部楼层

楼主太厉害了!楼主,电影应该很好看我觉得蓝光电影网真是个好地方!
回复 支持 反对

使用道具 举报

蓝光币
673
发表于 2022-7-28 19:26:01 | 显示全部楼层

楼主太厉害了!楼主,电影应该很好看我觉得蓝光电影网真是个好地方!
回复 支持 反对

使用道具 举报

懒得打字嘛,点击右侧快捷回复 【右侧内容,后台自定义】
您需要登录后才可以回帖 登录 | 立即加入

本版积分规则

Archiver|小黑屋| 蓝光电影网 |网站地图

Copyright © 2021 Comsenz Inc. Powered by 蓝光电影网

蓝光电影网

本站内容由用户自主分享和转载自互联网,转载目的在于传递更多信息,并不代表本网赞同其观点和对其真实性负责。

如有侵权、违反国家法律政策行为,请联系我们,我们会第一时间及时清除和处理!

举报反馈邮箱:[email protected]

快速回复 返回顶部 返回列表