找回密码

蓝光电影网

查看: 94|回复: 0

[剧情] 赤脚小子[国粤语配音/中文字幕].The.Bare-Footed.Kid.1993.FRA.BluRay.1080p.HEVC.10bit.2Audio.MiniFHD-MOMOHD 4.74GB

[复制链接]
蓝光币
8
发表于 2022-7-29 01:56:22 | 显示全部楼层 |阅读模式


◎标  题 光脚小子
◎译  名 江湖传闻 / 义胆小侠 / The Bare-Footed Kid
◎年  代 1993
◎产  地 中国香港
◎类  别 剧情 / 行动 / 武侠 / 古装
◎语  言 粤语
◎上映日期 1993-04-03
◎IMDb评分 6.4/10 (796人评价)
◎IMDb链接 https://www.imdb.com/title/tt0106552/
◎豆瓣评分 7.0/10 (6360人评价)
◎豆瓣链接 https://movie.douban.com/subject/1474336/
◎片  长 83分钟
◎导  演 杜琪峰 Johnnie To
◎编  剧 游乃海 Nai-Hoi Yau
◎演  员 郭富城 Aaron Kwok
       张曼玉 Maggie Cheung
       狄龙 Lung Ti
       吴倩莲 Chien-lien Wu
       张兆辉 Siu-Fai Cheung
       秦沛 Paul Chun
       曾江 Kenneth Tsang
       黄一飞 Yut Fei Wong
       张荣祥 Cheung Wing-Cheung
       江苗定 Miu Ting Kong
       麦伟章 Wai Cheung Mak
       周树基 Kent Chow Shu-Kei
       谭镇渡 Tony Tam Chun-To
       向叠 Heung Dip
       陈文妤 Man-Hiu Chan
       王章宝 Cheung-Bo Wong
       林华勋 Jameson Wa-Fan Lam
       方逸华 Mona Fong
       胡伟立 Wai Lap Wu
       黄永久 Wing-Hung Wong
       黎沃 Lai Yu
       刘家良 Kar-Leung Lau
◎标  签 杜琪峰 / 香港 / 郭富城 / 张曼玉 / 行动 / 香港电影 / 狄龙 / 1993
◎简  介
  清代某年。光脚小子关丰曜(郭富城 饰)单身入省会闯荡,他一无一切,可以依靠的只要自己一身功夫和染坊“四时织”内的父亲故人段青云(狄龙 饰)。                                    
                                省会内大势颇不安好,天龙坊仆人喀和布(曾江 饰)凭旗人身份独霸一方,用以提拔家丁打手的擂台熙攘不休。新任县令袁天助(张兆辉 饰)与教师(秦沛 饰)欲铲除喀和布,但立根不稳无计可施。关丰曜于路巧遇四时织女仆人白筱君(张曼玉 饰)和袁师之女小莲(吴倩莲 饰),并终与段青云相见,本来段青云为躲避追捕,更名换姓存身染坊,并与白筱君发生了情义。                                    
                                喀和布为吞并四时织奸计频出,关丰曜忍无可忍打上门去,反被喀和布收服操纵。袁天助在同喀和布的较劲中频频受挫,竟威胁段青云与喀和布拼斗,关丰曜仓促赶去救济,但为时已晚……
  1. ##### MediaInfo ######
  2. General
  3. Unique ID                                : 163448677762657383354597307952769392188 (0x7AF711FE5A395E0990DA1830A4FDDE3C)
  4. Complete name                            : 光脚小子.The.Bare-Footed.Kid.1993.FRA.BluRay.1080p.HEVC.10bit.2Audio.MiniFHD-MOMOHD.mkv
  5. Format                                   : Matroska
  6. Format version                           : Version 2
  7. File size                                : 4.74 GiB
  8. Duration                                 : 1 h 23 min
  9. Overall bit rate                         : 8 150 kb/s
  10. Encoded date                             : UTC 2022-07-13 13:57:37
  11. Writing application                      : mkvmerge v42.0.0 ('Overtime') 64-bit
  12. Writing library                          : libebml v1.3.10 + libmatroska v1.5.2
  13. Video
  14. ID                                       : 1
  15. Format                                   : HEVC
  16. Format/Info                              : High Efficiency Video Coding
  17. Format profile                           : Main [email protected]@Main
  18. Codec ID                                 : V_MPEGH/ISO/HEVC
  19. Duration                                 : 1 h 23 min
  20. Bit rate                                 : 7 241 kb/s
  21. Width                                    : 1 920 pixels
  22. Height                                   : 1 028 pixels
  23. Display aspect ratio                     : 1.85:1
  24. Frame rate mode                          : Constant
  25. Frame rate                               : 25.000 FPS
  26. Color space                              : YUV
  27. Chroma subsampling                       : 4:2:0
  28. Bit depth                                : 10 bits
  29. Bits/(Pixel*Frame)                       : 0.147
  30. Stream size                              : 4.21 GiB (89%)
  31. Writing library                          : x265 3.4+2-73ca1d7be377:[Windows][GCC 6.3.0][64 bit] 10bit
  32. Encoding settings                        : cpuid=538751111039 / frame-threads=3 / numa-pools=8 / wpp / no-pmode / no-pme / no-psnr / no-ssim / log-level=2 / input-csp=1 / input-res=1920x1028 / interlace=0 / total-frames=124968 / level-idc=0 / high-tier=1 / uhd-bd=0 / ref=3 / no-allow-non-conformance / no-repeat-headers / annexb / no-aud / no-hrd / info / hash=0 / no-temporal-layers / no-open-gop / min-keyint=25 / keyint=250 / gop-lookahead=0 / bframes=4 / b-adapt=2 / b-pyramid / bframe-bias=0 / rc-lookahead=20 / lookahead-slices=6 / NTM4NzU=uuDQuD2mJt9fsCf / scenecut=40 / hist-scenecut=0 / radl=0 / no-splice / no-intra-refresh / ctu=64 / min-cu-size=8 / no-rect / no-amp / max-tu-size=32 / tu-inter-depth=1 / tu-intra-depth=1 / limit-tu=0 / rdoq-level=0 / dynamic-rd=0.00 / no-ssim-rd / signhide / no-tskip / nr-intra=0 / nr-inter=0 / no-constrained-intra / no-strong-intra-smoothing / max-merge=3 / limit-refs=1 / no-limit-modes / me=1 / subme=2 / merange=57 / temporal-mvp / no-frame-dup / no-hme / weightp / no-weightb / no-analyze-src-pics / deblock=0:0 / no-sao / no-sao-non-deblock / rd=3 / selective-sao=0 / early-skip / rskip / no-fast-intra / no-tskip-fast / no-cu-lossless / b-intra / no-splitrd-skip / rdpenalty=0 / psy-rd=2.00 / psy-rdoq=0.00 / no-rd-refine / no-lossless / cbqpoffs=0 / crqpoffs=0 / rc=crf / crf=23.0 / qcomp=0.80 / qpstep=4 / stats-write=0 / stats-read=0 / ipratio=1.40 / pbratio=1.30 / aq-mode=2 / aq-strength=1.00 / cutree / zone-count=0 / no-strict-cbr / qg-size=32 / no-rc-grain / qpmax=69 / qpmin=0 / no-const-vbv / sar=1 / overscan=0 / videoformat=5 / range=0 / colorprim=1 / transfer=1 / colormatrix=1 / chromaloc=0 / display-window=0 / cll=0,0 / min-luma=0 / max-luma=1023 / log2-max-poc-lsb=8 / vui-timing-info / vui-hrd-info / slices=1 / no-opt-qp-pps / no-opt-ref-list-length-pps / no-multi-pass-opt-rps / scenecut-bias=0.05 / hist-threshold=0.01 / no-opt-cu-delta-qp / no-aq-motion / no-hdr10 / no-hdr10-opt / no-dhdr10-opt / no-idr-recovery-sei / analysis-reuse-level=0 / analysis-save-reuse-level=0 / analysis-load-reuse-level=0 / scale-factor=0 / refine-intra=0 / refine-inter=0 / refine-mv=1 / refine-ctu-distortion=0 / no-limit-sao / ctu-info=0 / no-lowpass-dct / refine-analysis-type=0 / copy-pic=1 / max-ausize-factor=1.0 / no-dynamic-refine / no-single-sei / no-hevc-aq / no-svt / no-field / qp-adaptation-range=1.00 / no-scenecut-aware-qpconformance-window-offsets / right=0 / bottom=0 / NTM4NzU= / decoder-max-rate=0
  33. Default                                  : Yes
  34. Forced                                   : No
  35. Color range                              : Limited
  36. Color primaries                          : BT.709
  37. Transfer characteristics                 : BT.709
  38. Matrix coefficients                      : BT.709
  39. Audio #1
  40. ID                                       : 2
  41. Format                                   : AC-3
  42. Format/Info                              : Audio Coding 3
  43. Commercial name                          : Dolby Digital
  44. Codec ID                                 : A_AC3
  45. Duration                                 : 1 h 23 min
  46. Bit rate mode                            : Constant
  47. Bit rate                                 : 448 kb/s
  48. Channel(s)                               : 2 channels
  49. Channel layout                           : L R
  50. Sampling rate                            : 48.0 kHz
  51. Frame rate                               : 31.250 FPS (1536 SPF)
  52. Compression mode                         : Lossy
  53. Stream size                              : 267 MiB (5%)
  54. Language                                 : Chinese
  55. Service kind                             : Complete Main
  56. Default                                  : Yes
  57. Forced                                   : No
  58. Audio #2
  59. ID                                       : 3
  60. Format                                   : AC-3
  61. Format/Info                              : Audio Coding 3
  62. Commercial name                          : Dolby Digital
  63. Codec ID                                 : A_AC3
  64. Duration                                 : 1 h 23 min
  65. Bit rate mode                            : Constant
  66. Bit rate                                 : 448 kb/s
  67. Channel(s)                               : 2 channels
  68. Channel layout                           : L R
  69. Sampling rate                            : 48.0 kHz
  70. Frame rate                               : 31.250 FPS (1536 SPF)
  71. Compression mode                         : Lossy
  72. Stream size                              : 267 MiB (5%)
  73. Language                                 : Chinese
  74. Service kind                             : Complete Main
  75. Default                                  : No
  76. Forced                                   : No
  77. Text #1
  78. ID                                       : 4
  79. Format                                   : UTF-8
  80. Codec ID                                 : S_TEXT/UTF8
  81. Codec ID/Info                            : UTF-8 Plain Text
  82. Duration                                 : 1 h 19 min
  83. Bit rate                                 : 42 b/s
  84. Count of elements                        : 1156
  85. Stream size                              : 24.5 KiB (0%)
  86. Language                                 : Chinese
  87. Default                                  : Yes
  88. Forced                                   : No
  89. Text #2
  90. ID                                       : 5
  91. Format                                   : UTF-8
  92. Codec ID                                 : S_TEXT/UTF8
  93. Codec ID/Info                            : UTF-8 Plain Text
  94. Duration                                 : 1 h 19 min
  95. Bit rate                                 : 42 b/s
  96. Count of elements                        : 1156
  97. Stream size                              : 24.5 KiB (0%)
  98. Language                                 : Chinese
  99. Default                                  : No
  100. Forced                                   : No
  101. Text #3
  102. ID                                       : 6
  103. Format                                   : PGS
  104. Muxing mode                              : zlib
  105. Codec ID                                 : S_HDMV/PGS
  106. Codec ID/Info                            : Picture based subtitle format used on BDs/HD-DVDs
  107. Duration                                 : 1 h 21 min
  108. Bit rate                                 : 29.9 kb/s
  109. Count of elements                        : 2190
  110. Stream size                              : 17.3 MiB (0%)
  111. Language                                 : French
  112. Default                                  : No
  113. Forced                                   : No
复制代码

















保举请利用qBittorrent,utorrent,transmission等标准BT软件下载!以获得最快速度。奉求保种!





回复

使用道具 举报

懒得打字嘛,点击右侧快捷回复 【右侧内容,后台自定义】
您需要登录后才可以回帖 登录 | 立即加入

本版积分规则

Archiver|小黑屋| 蓝光电影网 |网站地图

Copyright © 2021 Comsenz Inc. Powered by 蓝光电影网

蓝光电影网

本站内容由用户自主分享和转载自互联网,转载目的在于传递更多信息,并不代表本网赞同其观点和对其真实性负责。

如有侵权、违反国家法律政策行为,请联系我们,我们会第一时间及时清除和处理!

举报反馈邮箱:[email protected]

快速回复 返回顶部 返回列表