找回密码

蓝光电影网

查看: 47|回复: 0

[剧情] 方世玉与洪熙官[国语音轨/简繁英字幕].Heroes.Two.1974.GER.Bluray.1080p.x265.10bit.FLAC-MiniHD 3.65GB

[复制链接]
蓝光币
7
发表于 2022-7-29 01:57:22 | 显示全部楼层 |阅读模式


◎标  题 方世玉与洪熙官
◎译  名 Heroes Two
◎片  名 方世玉與洪熙官
◎年  代 1974
◎产  地 中国香港
◎类  别 剧情 / 行动
◎语  言 汉语普通话
◎上映日期 1974-01-19
◎IMDb评分 6.5/10 (498人评价)
◎IMDb链接 https://www.imdb.com/title/tt0070051/
◎豆瓣评分 6.2/10 (605人评价)
◎豆瓣链接 https://movie.douban.com/subject/1299676/
◎片  长 West Germany: 86 分钟 / USA: 93 分钟
◎导  演 张彻 Cheh Chang
◎编  剧 张彻 Cheh Chang
◎演  员 傅声 Sheng Fu
       陈观泰 Kuan Tai Chen
       朱牧 Mu Zhu
       方心 Sam Fong
       王青 Ching Wong
       余袁稳 Yu Yuen Yin
       徐发 Fat Tsui
       罗强 Chiang Lo
       江全 Chuen Chiang
       卢慧 Lo Wai
       黄梅 Wong Mei
       徐建华 Chui Kin-Wa
       李振标 Li Chen-Piao
       叶天行 Stephan Yip Tin-Hang
       冯克安 Hark-On Fung
       郑则仕 Kent Cheng
       李海生 Hoi Sang Lee
       刘家荣 Chia Yung Liu
       陆剑明 Jamie Luk
       袁信义 Shun-Yee Yuen
       姜南 Nan Chiang
       陈国权 Kwok Kuen Chan
       戚毅雄 Ngai-Hung Chik
◎标  签 张彻 / 邵氏 / 香港 / 傅声 / 行动 / 香港电影 / 陈观泰 / 1974
◎简  介
    清兵火烧少林,寺中职员伤亡惨重,洪熙官(陈观泰 饰)虽然幸免于难可是身受重伤,他决议临时偃旗息鼓待到他日可以死灰复然,哪晓得流亡的一路上频频遭到官兵的追杀。某日,洪熙官正在和追捕他的官兵周旋,堕入酣战当中,巧得方世玉(傅声 饰)途经,方世玉误以为洪熙官是作奸不法之徒,因而帮助官兵将他五花大绑交至官府。                                                                      以后,方世玉才晓得,本来这人是台甫鼎鼎的洪熙官,自己居然成为了朝廷小人的爪牙,后悔不已的方世玉伙同一帮武林好汉,一行人起头研讨起领会救洪熙官的战略。
  1. ##### MediaInfo ######
  2. General
  3. Unique ID                                : 103418326579157351963342497091308988513 (0x4DCDA52B8BFC71080305A8F3179FA861)
  4. Complete name                            : Heroes.Two.1974.GER.Bluray.1080p.x265.10bit.FLAC-MiniHD.mkv
  5. Format                                   : Matroska
  6. Format version                           : Version 4
  7. File size                                : 3.65 GiB
  8. Duration                                 : 1 h 28 min
  9. Overall bit rate mode                    : Variable
  10. Overall bit rate                         : 5 915 kb/s
  11. Movie name                               : Toedlichen Faeuste der Shaolin
  12. Encoded date                             : UTC 2021-01-30 08:18:04
  13. Writing application                      : mkvmerge v51.0.0 ('I Wish') 64-bit
  14. Writing library                          : libebml v1.4.0 + libmatroska v1.6.2
  15. Cover                                    : Yes
  16. Attachments                              : cover.jpg / cover.jpg / cover.jpg
  17. Video
  18. ID                                       : 1
  19. Format                                   : HEVC
  20. Format/Info                              : High Efficiency Video Coding
  21. Format profile                           : Main [email protected]@High
  22. Codec ID                                 : V_MPEGH/ISO/HEVC
  23. Duration                                 : 1 h 28 min
  24. Bit rate                                 : 5 672 kb/s
  25. Width                                    : 1 920 pixels
  26. Height                                   : 812 pixels
  27. Display aspect ratio                     : 2.35:1
  28. Frame rate mode                          : Constant
  29. Frame rate                               : 25.000 FPS
  30. Color space                              : YUV
  31. Chroma subsampling                       : 4:2:0
  32. Bit depth                                : 10 bits
  33. Bits/(Pixel*Frame)                       : 0.146
  34. Stream size                              : 3.50 GiB (96%)
  35. Writing library                          : x265 3.4+33-606265ac7:[Windows][MSVC 1928][64 bit] 10bit
  36. Encoding settings                        : cpuid=538751111039 / frame-threads=2 / numa-pools=4 / wpp / pmode / no-pme / no-psnr / no-ssim / log-level=2 / input-csp=1 / input-res=1920x812 / interlace=0 / total-frames=132627 / level-idc=0 / high-tier=1 / uhd-bd=0 / ref=4 / no-allow-non-conformance / no-repeat-headers / annexb / no-aud / no-hrd / info / hash=0 / no-temporal-layers / no-open-gop / min-keyint=1 / keyint=250 / gop-lookahead=0 / bframes=6 / b-adapt=2 / b-pyramid / bframe-bias=0 / rc-lookahead=80 / lookahead-slices=0 / NTM4NzU=uuDQuD2mJt9fsCf / scenecut=40 / hist-scenecut=0 / radl=0 / no-splice / no-intra-refresh / ctu=32 / min-cu-size=8 / no-rect / no-amp / max-tu-size=32 / tu-inter-depth=4 / tu-intra-depth=4 / limit-tu=0 / rdoq-level=2 / dynamic-rd=0.00 / no-ssim-rd / signhide / tskip / nr-intra=0 / nr-inter=0 / no-constrained-intra / strong-intra-smoothing / max-merge=5 / limit-refs=0 / no-limit-modes / me=3 / subme=7 / merange=44 / temporal-mvp / no-frame-dup / no-hme / weightp / weightb / no-analyze-src-pics / deblock=-3:-3 / no-sao / no-sao-non-deblock / rd=4 / selective-sao=0 / no-early-skip / no-rskip / no-fast-intra / no-tskip-fast / no-cu-lossless / b-intra / no-splitrd-skip / rdpenalty=0 / psy-rd=1.50 / psy-rdoq=1.00 / no-rd-refine / no-lossless / cbqpoffs=-2 / crqpoffs=-2 / rc=crf / crf=21.0 / qcomp=0.65 / qpstep=4 / stats-write=0 / stats-read=0 / vbv-maxrate=160000 / vbv-bufsize=160000 / vbv-init=0.9 / min-vbv-fullness=50.0 / max-vbv-fullness=80.0 / crf-max=0.0 / crf-min=0.0 / ipratio=1.30 / pbratio=1.20 / aq-mode=2 / aq-strength=0.90 / no-cutree / zone-count=0 / no-strict-cbr / qg-size=8 / no-rc-grain / qpmax=69 / qpmin=0 / no-const-vbv / sar=0 / overscan=0 / videoformat=5 / range=0 / colorprim=1 / transfer=1 / colormatrix=1 / chromaloc=0 / display-window=0 / cll=0,0 / min-luma=0 / max-luma=1023 / log2-max-poc-lsb=8 / vui-timing-info / vui-hrd-info / slices=1 / no-opt-qp-pps / no-opt-ref-list-length-pps / no-multi-pass-opt-rps / scenecut-bias=0.05 / hist-threshold=0.03 / no-opt-cu-delta-qp / no-aq-motion / no-hdr10 / no-hdr10-opt / no-dhdr10-opt / no-idr-recovery-sei / analysis-reuse-level=0 / analysis-save-reuse-level=0 / analysis-load-reuse-level=0 / scale-factor=0 / refine-intra=0 / refine-inter=0 / refine-mv=1 / refine-ctu-distortion=0 / no-limit-sao / ctu-info=0 / no-lowpass-dct / refine-analysis-type=0 / copy-pic=1 / max-ausize-factor=1.0 / no-dynamic-refine / no-single-sei / no-hevc-aq / no-svt / no-field / qp-adaptation-range=1.00 / scenecut-aware-qp=0conformance-window-offsets / right=0 / bottom=0 / NTM4NzU= / decoder-max-rate=0 / no-vbv-live-multi-pass
  37. Default                                  : Yes
  38. Forced                                   : No
  39. Color range                              : Limited
  40. Color primaries                          : BT.709
  41. Transfer characteristics                 : BT.709
  42. Matrix coefficients                      : BT.709
  43. Audio
  44. ID                                       : 2
  45. Format                                   : FLAC
  46. Format/Info                              : Free Lossless Audio Codec
  47. Codec ID                                 : A_FLAC
  48. Duration                                 : 1 h 28 min
  49. Bit rate mode                            : Variable
  50. Bit rate                                 : 240 kb/s
  51. Channel(s)                               : 2 channels
  52. Channel layout                           : L R
  53. Sampling rate                            : 48.0 kHz
  54. Frame rate                               : 11.719 FPS (4096 SPF)
  55. Bit depth                                : 16 bits
  56. Compression mode                         : Lossless
  57. Stream size                              : 152 MiB (4%)
  58. Writing library                          : libFLAC 1.2.1 (UTC 2007-09-17)
  59. Language                                 : Chinese
  60. Default                                  : Yes
  61. Forced                                   : No
  62. Text #1
  63. ID                                       : 3
  64. Format                                   : UTF-8
  65. Codec ID                                 : S_TEXT/UTF8
  66. Codec ID/Info                            : UTF-8 Plain Text
  67. Duration                                 : 1 h 25 min
  68. Bit rate                                 : 55 b/s
  69. Count of elements                        : 638
  70. Stream size                              : 34.7 KiB (0%)
  71. Title                                    : chs&eng
  72. Language                                 : Chinese
  73. Default                                  : Yes
  74. Forced                                   : No
  75. Text #2
  76. ID                                       : 4
  77. Format                                   : UTF-8
  78. Codec ID                                 : S_TEXT/UTF8
  79. Codec ID/Info                            : UTF-8 Plain Text
  80. Duration                                 : 1 h 25 min
  81. Bit rate                                 : 25 b/s
  82. Count of elements                        : 637
  83. Stream size                              : 15.9 KiB (0%)
  84. Title                                    : CHS
  85. Language                                 : Chinese
  86. Default                                  : No
  87. Forced                                   : No
  88. Text #3
  89. ID                                       : 5
  90. Format                                   : UTF-8
  91. Codec ID                                 : S_TEXT/UTF8
  92. Codec ID/Info                            : UTF-8 Plain Text
  93. Duration                                 : 1 h 25 min
  94. Bit rate                                 : 55 b/s
  95. Count of elements                        : 638
  96. Stream size                              : 34.7 KiB (0%)
  97. Title                                    : cht&eng
  98. Language                                 : Chinese
  99. Default                                  : No
  100. Forced                                   : No
  101. Text #4
  102. ID                                       : 6
  103. Format                                   : UTF-8
  104. Codec ID                                 : S_TEXT/UTF8
  105. Codec ID/Info                            : UTF-8 Plain Text
  106. Duration                                 : 1 h 25 min
  107. Bit rate                                 : 28 b/s
  108. Count of elements                        : 639
  109. Stream size                              : 17.6 KiB (0%)
  110. Language                                 : English
  111. Default                                  : No
  112. Forced                                   : No
  113. Menu
  114. 00:00:00.000                             : en:Chapter 01
  115. 00:10:22.400                             : en:Chapter 02
  116. 00:26:14.240                             : en:Chapter 03
  117. 00:39:51.880                             : en:Chapter 04
  118. 00:51:44.280                             : en:Chapter 05
  119. 00:59:03.680                             : en:Chapter 06
  120. 01:11:21.960                             : en:Chapter 07
  121. 01:13:56.760                             : en:Chapter 08
复制代码



保举请利用qBittorrent,utorrent,transmission等标准BT软件下载!以获得最快速度。奉求保种!





回复

使用道具 举报

懒得打字嘛,点击右侧快捷回复 【右侧内容,后台自定义】
您需要登录后才可以回帖 登录 | 立即加入

本版积分规则

Archiver|小黑屋| 蓝光电影网 |网站地图

Copyright © 2021 Comsenz Inc. Powered by 蓝光电影网

蓝光电影网

本站内容由用户自主分享和转载自互联网,转载目的在于传递更多信息,并不代表本网赞同其观点和对其真实性负责。

如有侵权、违反国家法律政策行为,请联系我们,我们会第一时间及时清除和处理!

举报反馈邮箱:[email protected]

快速回复 返回顶部 返回列表