找回密码

蓝光电影网

查看: 120|回复: 0

[剧情] 天涯海角 Lost.and.Found.1996.CHINESE.1080p.BluRay.x264.FLAC.2.0-HANDJOB 8.66GB

[复制链接]
蓝光币
1022
发表于 2022-7-29 22:39:59 | 显示全部楼层 |阅读模式


◎标  题 天涯天涯
◎译  名 Lost and Found
◎年  代 1996
◎产  地 中国香港
◎类  别 剧情 / 恋爱
◎语  言 粤语
◎上映日期 1996-10-18(中国香港)
◎IMDb评分 7.3/10 (470人评价)
◎IMDb链接 https://www.imdb.com/title/tt0117904/
◎豆瓣评分 8.0/10 (10350人评价)
◎豆瓣链接 https://movie.douban.com/subject/1307724/
◎片  长 109分钟
◎导  演 李志毅 Chi-ngai Lee
◎编  剧 李志毅 Chi-ngai Lee
◎演  员 金城武 Takeshi Kaneshiro
       陈慧琳 Kelly Chen
       王敏德 Michael Wong
       陈小春 Jordan Chan
       何超仪 Josie Ho
       陈豪 Moses Chan
       陈德森 Teddy Chan
       张达明 Tat-Ming Cheung
       玛利亚 Maria Cordero
       方平 Henry Fong
       徐濠萦 Hilary Tsui
       李晓彤 Tina Lee
       滕丽名 Joyce Tang
       李志毅 Chi-ngai Lee
       谢家慧 Doris Tse
       曾志伟 Eric Tsang
       邹文怀 Raymond Chow
       雷颂德 Mark Lui
       黄仲标 Bill Wong
       麦兆辉 Alan Mak
       关信辉 Adrian Kwan
       曾景祥 Kinson Tsang
◎简  介

  少女琳(陈慧琳)得了血癌,就在她丢失于生与死的边沿时,结识了成熟稳重的苏格兰船员阿德(王敏德),听过阿德所讲的关于他故乡天涯天涯的故事后,琳感遭到一份莫名的缘分,但是忽然间阿德消失,失落之际,琳碰到专门替人寻觅失物的阿虫(金城武),聘请下他寻觅阿德,经过阿虫的辛劳尽力,琳与阿德终又碰头,本来阿德预备回故乡假寓。                                    
                                阿德走后,琳和阿虫一路干事时获得一种从没有过的充实和欢畅,但是她的心里始终惦念着天涯天涯,并决议在生命竣事之前,一定要去那边一趟。
  1. Video
  2. ID                                       : 1
  3. Format                                   : AVC
  4. Format/Info                              : Advanced Video Codec
  5. Format profile                           : [email protected]
  6. Format settings                          : CABAC / 4 Ref Frames
  7. Format settings, CABAC                   : Yes
  8. Format settings, Reference frames        : 4 frames
  9. Codec ID                                 : V_MPEG4/ISO/AVC
  10. Duration                                 : 1 h 48 min
  11. Bit rate                                 : 10.9 Mb/s
  12. Width                                    : 1 918 pixels
  13. Height                                   : 1 080 pixels
  14. Display aspect ratio                     : 16:9
  15. Frame rate mode                          : Constant
  16. Frame rate                               : 24.000 FPS
  17. Color space                              : YUV
  18. Chroma subsampling                       : 4:2:0
  19. Bit depth                                : 8 bits
  20. Scan type                                : Progressive
  21. Bits/(Pixel*Frame)                       : 0.218
  22. Stream size                              : 8.26 GiB (95%)
  23. Writing library                          : x264 core 164 r3065 ae03d92
  24. Encoding settings                        : cabac=1 / ref=4 / deblock=1:-3:-3 / analyse=0x3:0x133 / me=umh / subme=10 / psy=1 / psy_rd=1.00:0.00 / mixed_ref=1 / me_range=32 / chroma_me=1 / trellis=2 / 8x8dct=1 / cqm=0 / deadzone=21,11 / fast_pskip=0 / chroma_qp_offset=-2 / threads=34 / lookahead_threads=8 / sliced_threads=0 / nr=0 / decimate=0 / interlaced=0 / bluray_compat=0 / constrained_intra=0 / bframes=16 / b_pyramid=2 / b_adapt=2 / b_bias=0 / direct=3 / weightb=1 / open_gop=0 / weightp=2 / keyint=240 / keyint_min=24 / scenecut=40 / intra_refresh=0 / rc_lookahead=60 / rc=crf / mbtree=0 / crf=19.8 / qcomp=0.60 / qpmin=0 / qpmax=69 / qpstep=4 / vbv_maxrate=62500 / vbv_bufsize=78125 / crf_max=0.0 / nal_hrd=none / filler=0 / ip_ratio=1.40 / pb_ratio=1.30 / aq=2:1.00
  25. Default                                  : Yes
  26. Forced                                   : No
  27. Color range                              : Limited
  28. Color primaries                          : BT.709
  29. Transfer characteristics                 : BT.709
  30. Matrix coefficients                      : BT.709
  31. Audio
  32. ID                                       : 2
  33. Format                                   : FLAC
  34. Format/Info                              : Free Lossless Audio Codec
  35. Codec ID                                 : A_FLAC
  36. Duration                                 : 1 h 48 min
  37. Bit rate mode                            : Variable
  38. Bit rate                                 : 487 kb/s
  39. Channel(s)                               : 2 channels
  40. Channel layout                           : L R
  41. Sampling rate                            : 48.0 kHz
  42. Frame rate                               : 11.719 FPS (4096 SPF)
  43. Bit depth                                : 16 bits
  44. Compression mode                         : Lossless
  45. Stream size                              : 379 MiB (4%)
  46. Title                                    : Cantonese
  47. Writing library                          : libFLAC 1.2.1 (UTC 2007-09-17)
  48. Language                                 : Chinese
  49. Default                                  : Yes
  50. Forced                                   : No
  51. Text #1
  52. ID                                       : 3
  53. Format                                   : UTF-8
  54. Codec ID                                 : S_TEXT/UTF8
  55. Codec ID/Info                            : UTF-8 Plain Text
  56. Duration                                 : 1 h 45 min
  57. Bit rate                                 : 46 b/s
  58. Frame rate                               : 0.209 FPS
  59. Count of elements                        : 1324
  60. Stream size                              : 36.2 KiB (0%)
  61. Language                                 : English
  62. Default                                  : Yes
  63. Forced                                   : No
  64. Text #2
  65. ID                                       : 4
  66. Format                                   : PGS
  67. Muxing mode                              : zlib
  68. Codec ID                                 : S_HDMV/PGS
  69. Codec ID/Info                            : Picture based subtitle format used on BDs/HD-DVDs
  70. Duration                                 : 1 h 45 min
  71. Bit rate                                 : 29.4 kb/s
  72. Frame rate                               : 0.367 FPS
  73. Count of elements                        : 2327
  74. Stream size                              : 22.2 MiB (0%)
  75. Title                                    : Simplified
  76. Language                                 : Chinese
  77. Default                                  : No
  78. Forced                                   : No
  79. Text #3
  80. ID                                       : 5
  81. Format                                   : PGS
  82. Muxing mode                              : zlib
  83. Codec ID                                 : S_HDMV/PGS
  84. Codec ID/Info                            : Picture based subtitle format used on BDs/HD-DVDs
  85. Duration                                 : 1 h 45 min
  86. Bit rate                                 : 31.6 kb/s
  87. Frame rate                               : 0.367 FPS
  88. Count of elements                        : 2327
  89. Stream size                              : 23.9 MiB (0%)
  90. Title                                    : Traditional
  91. Language                                 : Chinese
  92. Default                                  : No
  93. Forced                                   : No
  94. Menu
  95. 00:00:00.000                             : en:Chapter 1
  96. 00:08:22.000                             : en:Chapter 2
  97. 00:22:16.042                             : en:Chapter 3
  98. 00:33:42.458                             : en:Chapter 4
  99. 00:42:44.750                             : en:Chapter 5
  100. 00:51:32.792                             : en:Chapter 6
  101. 01:00:33.250                             : en:Chapter 7
  102. 01:10:29.667                             : en:Chapter 8
  103. 01:19:06.583                             : en:Chapter 9
  104. 01:30:03.417                             : en:Chapter 10
  105. 01:37:41.583                             : en:Chapter 11
  106. 01:42:10.000                             : en:Chapter 12
复制代码




                                       
                                       

                                       
                                       
                                       




回复

使用道具 举报

懒得打字嘛,点击右侧快捷回复 【右侧内容,后台自定义】
您需要登录后才可以回帖 登录 | 立即加入

本版积分规则

Archiver|小黑屋| 蓝光电影网 |网站地图

Copyright © 2021 Comsenz Inc. Powered by 蓝光电影网

蓝光电影网

本站内容由用户自主分享和转载自互联网,转载目的在于传递更多信息,并不代表本网赞同其观点和对其真实性负责。

如有侵权、违反国家法律政策行为,请联系我们,我们会第一时间及时清除和处理!

举报反馈邮箱:[email protected]

快速回复 返回顶部 返回列表