找回密码

蓝光电影网

查看: 239|回复: 9

[喜剧] 战争启示录 Whoops.Apocalypse.1986.1080p.BluRay.x264-GAZER 9.28GB

[复制链接]
蓝光币
953
发表于 2022-8-15 08:23:15 | 显示全部楼层 |阅读模式


◎标  题 战争启迪录
◎译  名 天启
◎片  名 Whoops Apocalypse
◎年  代 1986
◎产  地 英国
◎类  别 笑剧
◎语  言 英语
◎上映日期 1991-07-25
◎IMDb评分 6/10 (911人评价)
◎IMDb链接 https://www.imdb.com/title/tt0092211/
◎豆瓣链接 https://movie.douban.com/subject/3546294/
◎片  长 Brazil: 93 分钟
◎编  剧 大卫·伦维克 David Renwick
◎演  员 Stuart Saunders Stuart Saunders
       Graeme Garden Graeme Garden
       Richard Murdoch Richard Murdoch
       克里斯托弗·马尔科姆 Christopher Malcolm
       芭芭拉·基奥 Barbara Keogh
       Tristram Jellinek Tristram Jellinek
       克里斯托弗·鲁日茨基 Christopher Rozycki
       Ruben Rabasa Ruben Rabasa
       洛丽泰·斯威 Loretta Swit
       理查德·威尔逊 Richard Wilson
       Maria Whittaker Maria Whittaker
        Christine Peake
       凯伦·凯利 Karen Kelly
       Daniel Peacock Daniel Peacock
       Ken Jones Ken Jones
       莫瑞·汉密尔顿 Murray Hamilton
       亚历山大·达维翁 Alexander Davion
       罗伯特·古德曼 Robert Goodman
       约翰·塞森斯 John Sessions
       克里夫顿·詹姆斯 Clifton James
       迈克尔·理查兹 Michael Richards
       阿列克谢·赛尔 Alexei Sayle
       理查德·皮尔森 Richard Pearson
       伊恩·麦克尼奇 Ian McNeice
       里克·梅奥尔 Rik Mayall
       赫伯特·罗姆 Herbert Lom
       伊恩·理查森 Ian Richardson
       罗伯特·阿登 Robert Arden
       丹尼尔·本扎利 Daniel Benzali
       艾德·毕肖普 Ed Bishop
       安东尼·科雷亚 Anthony Correa
       Christopher Coll Christopher Coll
       彼得·库克 Peter Cook
       布莱恩·伊斯特曼 Brian Eastman
       帕特里克·高尔斯 Patrick Gowers
       彼得·波义耳 Peter Boyle
       托尼·诺布尔 Tony Noble
       伊莉莎白·沃勒 Elizabeth Waller
       Kezia De Winne Kezia De Winne
◎简  介

  A small British colony is invaded by its Communist neighbour. Newly elected female President of the United States, Barbara Adams, tried to sort out the mess but the British under the leader of PM Sir Mortimer Chris sends in a task force to seize the islands back. For revenge, General Mosquera, leader of the Communist country, hires the best terrorist in the world, Lacrobat, to ...
  1. Video
  2. ID                                       : 1
  3. Format                                   : AVC
  4. Format/Info                              : Advanced Video Codec
  5. Format profile                           : [email protected]
  6. Format settings                          : CABAC / 4 Ref Frames
  7. Format settings, CABAC                   : Yes
  8. Format settings, Reference frames        : 4 frames
  9. Codec ID                                 : V_MPEG4/ISO/AVC
  10. Duration                                 : 1 h 32 min
  11. Bit rate                                 : 14.0 Mb/s
  12. Width                                    : 1 920 pixels
  13. Height                                   : 1 080 pixels
  14. Display aspect ratio                     : 16:9
  15. Frame rate mode                          : Constant
  16. Frame rate                               : 24.000 FPS
  17. Color space                              : YUV
  18. Chroma subsampling                       : 4:2:0
  19. Bit depth                                : 8 bits
  20. Scan type                                : Progressive
  21. Bits/(Pixel*Frame)                       : 0.281
  22. Stream size                              : 8.99 GiB (97%)
  23. Writing library                          : x264 core 164 r3095 baee400
  24. Encoding settings                        : cabac=1 / ref=4 / deblock=1:-3:-3 / analyse=0x3:0x133 / me=umh / subme=10 / psy=1 / psy_rd=1.20:0.00 / mixed_ref=1 / me_range=24 / chroma_me=1 / trellis=2 / 8x8dct=1 / cqm=0 / deadzone=21,11 / fast_pskip=0 / chroma_qp_offset=-2 / threads=24 / lookahead_threads=4 / sliced_threads=0 / nr=0 / decimate=0 / interlaced=0 / bluray_compat=0 / constrained_intra=0 / bframes=8 / b_pyramid=2 / b_adapt=2 / b_bias=0 / direct=3 / weightb=1 / open_gop=0 / weightp=2 / keyint=250 / keyint_min=24 / scenecut=40 / intra_refresh=0 / rc_lookahead=60 / rc=crf / mbtree=1 / crf=21.0 / qcomp=0.60 / qpmin=0 / qpmax=69 / qpstep=4 / ip_ratio=1.40 / aq=3:0.90
  25. Default                                  : Yes
  26. Forced                                   : No
  27. Color range                              : Limited
  28. Matrix coefficients                      : BT.709

  29. Audio
  30. ID                                       : 2
  31. Format                                   : FLAC
  32. Format/Info                              : Free Lossless Audio Codec
  33. Codec ID                                 : A_FLAC
  34. Duration                                 : 1 h 32 min
  35. Bit rate mode                            : Variable
  36. Bit rate                                 : 429 kb/s
  37. Channel(s)                               : 2 channels
  38. Channel layout                           : L R
  39. Sampling rate                            : 48.0 kHz
  40. Frame rate                               : 11.719 FPS (4096 SPF)
  41. Bit depth                                : 16 bits
  42. Compression mode                         : Lossless
  43. Stream size                              : 283 MiB (3%)
  44. Writing library                          : libFLAC 1.3.3 (UTC 2019-08-04)
  45. Language                                 : English
  46. Default                                  : Yes
  47. Forced                                   : No

  48. Text
  49. ID                                       : 3
  50. Format                                   : PGS
  51. Muxing mode                              : zlib
  52. Codec ID                                 : S_HDMV/PGS
  53. Codec ID/Info                            : Picture based subtitle format used on BDs/HD-DVDs
  54. Duration                                 : 1 h 31 min
  55. Bit rate                                 : 34.4 kb/s
  56. Count of elements                        : 2236
  57. Stream size                              : 22.6 MiB (0%)
  58. Title                                    : SDH
  59. Language                                 : English
  60. Default                                  : No
  61. Forced                                   : No

  62. Menu
  63. 00:00:00.000                             : Chapter 01
  64. 00:04:01.542                             : Chapter 02
  65. 00:10:53.917                             : Chapter 03
  66. 00:20:01.167                             : Chapter 04
  67. 00:25:23.417                             : Chapter 05
  68. 00:33:45.875                             : Chapter 06
  69. 00:41:28.375                             : Chapter 07
  70. 00:48:44.125                             : Chapter 08
  71. 00:56:26.208                             : Chapter 09
  72. 01:06:06.500                             : Chapter 10
  73. 01:14:34.292                             : Chapter 11
  74. 01:25:53.292                             : Chapter 12
  75. 01:32:12.167                             : Chapter 13
复制代码




                                       
                                       

                                       
                                       
                                       




回复

使用道具 举报

蓝光币
15
发表于 2022-8-15 08:47:07 | 显示全部楼层
感谢楼主,再发精品
回复 支持 反对

使用道具 举报

蓝光币
137
发表于 2022-8-15 16:48:43 | 显示全部楼层
谢谢楼主分享
回复 支持 反对

使用道具 举报

蓝光币
28
发表于 2022-8-15 22:05:05 | 显示全部楼层
楼主发贴辛苦了,谢谢楼主分享!我觉得蓝光电影网是注册对了!
回复 支持 反对

使用道具 举报

蓝光币
113
发表于 2022-8-15 22:22:33 | 显示全部楼层
楼主发贴辛苦了,谢谢楼主分享!我觉得蓝光电影网是注册对了!
回复 支持 反对

使用道具 举报

蓝光币
188
发表于 2022-8-16 08:13:25 | 显示全部楼层
这个是经典的电影,感谢楼主发贴!
回复 支持 反对

使用道具 举报

蓝光币
15
发表于 2022-8-16 08:49:50 | 显示全部楼层
感谢楼主,再发精品
回复 支持 反对

使用道具 举报

蓝光币
107
发表于 2022-8-16 22:38:36 | 显示全部楼层
楼主发贴辛苦了,谢谢楼主分享!我觉得蓝光电影网是注册对了!
回复 支持 反对

使用道具 举报

蓝光币
54
发表于 2022-8-17 10:26:29 | 显示全部楼层

楼主太厉害了!楼主,电影应该很好看我觉得蓝光电影网真是个好地方!
回复 支持 反对

使用道具 举报

蓝光币
4
发表于 2022-8-18 00:55:20 | 显示全部楼层
不是越南战争那部吗
回复 支持 反对

使用道具 举报

懒得打字嘛,点击右侧快捷回复 【右侧内容,后台自定义】
您需要登录后才可以回帖 登录 | 立即加入

本版积分规则

Archiver|小黑屋| 蓝光电影网 |网站地图

Copyright © 2021 Comsenz Inc. Powered by 蓝光电影网

蓝光电影网

本站内容由用户自主分享和转载自互联网,转载目的在于传递更多信息,并不代表本网赞同其观点和对其真实性负责。

如有侵权、违反国家法律政策行为,请联系我们,我们会第一时间及时清除和处理!

举报反馈邮箱:[email protected]

快速回复 返回顶部 返回列表