找回密码

查看: 968|回复: 5

[1993][中国][喜剧]我爱我家 [腾讯高清修复版120集].I.Love.My.Family.S01.1993.1080p.WEB-DL.H264.AAC-HHWEB 44.24GB

[复制链接]
蓝光币
2048
发表于 2024-2-26 13:44:01 | 显示全部楼层 |阅读模式
[1993][中国][笑剧]我爱我家 [腾讯高清修复版120集].I.Love.My.Family.S01.1993.1080p.WEB-DL.H264.AAC-HHWEB 44.24GB-1.jpg

◎译  名 I Love My Family / 我爱我家
◎片  名 我爱我家
◎年  代 1993
◎产  地 中国大陆
◎类  别 笑剧 / 家庭
◎语  言 汉语普通话 / 北京话
◎上映日期 1993-07-01(中国大陆)
◎IMDb评星  ★★★★★★★★✦☆
◎IMDb评分  8.7/10 from 288 users
◎IMDb链接  https://www.imdb.com/title/tt1332701/
◎豆瓣评星 ★★★★✦
◎豆瓣评分 9.4/10 from 101,915 users
◎豆瓣链接 https://movie.douban.com/subject/3901388/
◎单集片长 20分钟
◎集  数 120
◎导  演 英达 / Da Ying
      林丛 / Cong Lin
◎演  员 文兴宇 / Xingyu Wen | 饰 傅明
      宋丹丹 / Dandan Song | 饰 战争
      杨立新 / LiXin Yang | 饰 贾志国
      梁天 / Tian Liang | 饰 贾志新
      关凌 / Ling Guan | 饰 贾圆圆
      赵明显 / Mingming Zhao | 饰 贾小凡
      沈羽倩 / Yuqian Shen | 饰 张凤姑
      刘蓓 / Bei Liu | 饰 任远
      李蕴桥 / Yunqiao Li | 饰 薛小桂
      句号 / Hao Ju | 饰 李瞎子
      孟瑾 / Jin Meng | 饰 调解办主任
      陈心黎 / Xinli Chen | 饰 韩春妮
      刘小宁 / Xiaoning Liu | 饰 交通差人
      雷瑞琴 / Ruiqin Lei | 饰 和绅第十二代传人
      颜美怡 / Meiyi Yan | 饰 文怡
      王志文 / Zhiwen Wang | 饰 神经病人
      杨桂香 / Guixiang Yang | 饰 方方妈
      宁宁 / Ning Ning | 饰 女中门生刘爱峰
      郭冬临 / Donglin Guo | 饰 刘建军
      贾乐松 / Yuesong Jia | 饰 保姆小兰
      李诚儒 / Chengru Li | 饰 老赵
      金雅琴 / Yaqin Jin | 饰 余大妈
      李雪健 / Xuejian Li | 饰 苏老板
      葛优 / You Ge | 饰 纪春生
      严敏求 / Minqiu Yan  | 饰 邻人
      莫岐 / Qi Mo
      江珊 / Shan Jiang | 饰 多疑妻子
      何冰 / Bing He | 饰 胡三
      李梅 / Mei Li | 饰 春花
      原华 / Hua Yuan | 饰 打骂媳妇
      乔于庭 / Yuting Qiao | 饰 牛丽丽
      秦焰 / Yan Qin | 饰 东北穴头
      李耕 / Geng Li | 饰 张国荣掮客人
      刘威 / Wei Liu | 饰 孟朝晖
      谢芳 / Fang Xie | 饰 吴颖
      李婉芬 / Wanfen Li | 饰 贾淑芬
      雷恪生 / Kesheng Lei | 饰 和绅第九代传人
      牛星丽 / Xingli Niu | 饰 杨老
      宋春丽 / Chunli Song | 饰 徐小丽
      姜文 / Wen Jiang | 饰 怀疑人丙
      姜武 / Wu Jiang | 饰 怀疑人甲
      夏雨 / Yu Xia | 饰 怀疑人乙
      梁左 / Zuo Liang | 饰 灭鼠办梁主任
      王奎荣 / Kuirong Wang | 饰 游主编
      陈瑾 / Jin Chen | 饰 刘建军媳妇
      李丁 / Ding Li | 饰 冯导演
      英若诚 / Ruocheng Ying | 饰 胡学范
      李明启 / Mingqi Li | 饰 李大妈
      方青卓 / Qingzhuo Fang | 饰 崔秀芳
      蔡明 / Ming Cai | 饰 郑燕红
      谢园 / Yuan Xie | 饰 宝财
      金昭 / Zhao Jin | 饰 战争单元计划生育干部老李
      吕小品 / Xiaopin Lü | 饰 崔大壮
      刘金山 / Jinshan Liu | 饰 合资公司职员
      郭涛 / Tao Guo | 饰 打骂丈夫
      陶慧敏 / Huimin Tao | 饰 小晴表妹
      赵忠祥 / Zhongxiang Zhao | 饰 赵忠祥
      孙凤英 / Fengying Sun | 饰 赵教员
      林丛 / Cong Lin | 饰 宋刑警
      倪大红 / Dahong Ni | 饰 胡阿大
      吴淑昆 / Shukun Wu | 饰 齐大姨
      李野萍 / Yeping Li | 饰 小史姑娘
      唐纪琛 / Jichen Tang | 饰 陈大妈 / 退休女工
      张永强 / Yongqiang Zhang | 饰 孟朝阳
      梁欢 / Huan Liang | 饰 孟朝阳新交的女朋友
      英宁 / Ning Ying | 饰 电视台摄影师
      刘静荣 / Jingrong Liu | 饰 送保姆费的小李
      司马南 / Nan Sima | 饰 司马大师
      夏力薪 / Lixin Xia | 饰 丽达蜜斯
      英达 / Da Ying | 饰 DEC电脑公司董事长
      濮存昕 / Cunxin Pu | 饰 阿文
      郑振瑶 / Zhenyao Zheng | 饰 胡太太
      张瞳 / Tong Zhang | 饰 郑千里
      杨青 / Qing Yang | 饰 小翠
      韩影 / Ying Han | 饰 战争母亲
      英壮 / Zhuang Ying | 饰 杨医生
      黄宗洛 / Zongluo Huang | 饰 黄大爷
      牛莉 / Li Niu | 饰 小林
      马羚 / Ling Ma | 饰 马羚 / 骆日
      刘斌 / Bin Liu | 饰 段刑警
      李绪良 / Xuliang Li | 饰 举世公司李司理
◎编  剧 梁左 / Zuo Liang
      英壮 / Zhuang Ying
      梁欢 / Huan Liang
      臧里 / Li Zang
      孙健敏 / Jianmin Sun
      汤一原 / Yiyuan Tang
      刘国华 / Guohua Liu
      吴彤 / Tong Wu
      戴明宇 / Mingyu Dai
      冯俐 / Li Feng
      臧希 / Xi Zang
      赵志宇 / Zhiyu Zhao
      王朔 / Shuo Wang
      英达 / Da Ying
      张越 / Yue Zhang
      束焕 / Huan Shu
◎制  片  人 都郁 / Yu Du
      英壮 / Zhuang Ying
      王朔 / Shuo Wang
◎音  乐 关峡 / Xia Guan
      红豆 / Dou Hong
      那英 / Ying Na
      戴娆 / Rao Dai
      韩磊 / Lei Han
      章鹏 / Peng Zhang
      陈琳 / Lin Chen
      毛阿敏 / Amin Mao
      臧天朔 / Tianshuo Zang
◎摄  影 王小京 / Xiaojing Wang
◎美  术 戴延年 / Yannian Dai
◎制片治理 英宁 / Ning Ying
◎副  导  演 林丛 / Cong Lin
◎音  效 黄东斌 / Dongbin Huang

◎简  介 

  20世纪90年月,在老北京的一片普通生活区内,住着普通的老贾一家。一家之主傅明老人(文兴宇 饰)是加入过反动的老干部,退休以后仍然官腔不减,但在商品社会昂首的明天,他的言行显得有些格格不入和可笑起来。某机关任职的宗子贾志国(杨立新 饰)和在曲艺团工作的妻子战争(宋丹丹 饰)配合抚养着心爱的女儿圆圆(关凌 饰),加上游手好闲的二儿子志新(梁天 饰)和经常搞出状态的小保姆(沈畅 饰),令这小我热烈的大师庭内上演着一段有一段爆笑心爱的故事。他们的喜怒哀乐平常可见,是每一个生活在这个陈腐迈地上的国人实在的倒影……
  本剧为中国首部情形笑剧。
  1. General
  2. Complete name :我爱我家.I.Love.My.Family.S01.1993.1080p.WEB-DL.H264.AAC-HHWEB\I.Love.My.Family.S01E01.1993.1080p.WEB-DL.H264.AAC-HHWEB.mp4
  3. Format : MPEG-4
  4. Format profile : Base Media
  5. Codec ID : isom (isom/iso2/avc1/mp41)
  6. File size : 289 MiB
  7. Duration : 26 min 38 s
  8. Overall bit rate mode : Variable
  9. Overall bit rate : 1 515 kb/s
  10. Frame rate : 25.000 FPS
  11. Writing application : Lavf60.3.100
  12. Video
  13. ID : 1
  14. Format : AVC
  15. Format/Info : Advanced Video Codec
  16. Format profile : High@L4
  17. Format settings : CABAC / 4 Ref Frames
  18. Format settings, CABAC : Yes
  19. Format settings, Reference fra : 4 frames
  20. Codec ID : avc1
  21. Codec ID/Info : Advanced Video Coding
  22. Duration : 26 min 38 s
  23. Source duration : 26 min 38 s
  24. Bit rate : 1 415 kb/s
  25. Width : 1 440 pixels
  26. Height : 1 080 pixels
  27. Display aspect ratio : 4:3
  28. Frame rate mode : Variable
  29. Frame rate : 25.000 FPS
  30. Minimum frame rate : 24.993 FPS
  31. Maximum frame rate : 25.007 FPS
  32. Color space : YUV
  33. Chroma subsampling : 4:2:0
  34. Bit depth : 8 bits
  35. Scan type : Progressive
  36. Bits/(Pixel*Frame) : 0.036
  37. Stream size : 270 MiB (93%)
  38. Source stream size : 270 MiB (93%)
  39. Codec configuration box : avcC
  40. Audio
  41. ID : 2
  42. Format : AAC LC
  43. Format/Info : Advanced Audio Codec Low Complexity
  44. Codec ID : mp4a-40-2
  45. Duration : 26 min 38 s
  46. Bit rate mode : Variable
  47. Bit rate : 93.4 kb/s
  48. Maximum bit rate : 96.8 kb/s
  49. Channel(s) : 2 channels
  50. Channel layout : L R
  51. Sampling rate : 48.0 kHz
  52. Frame rate : 46.875 FPS (1024 SPF)
  53. Compression mode : Lossy
  54. Stream size : 17.8 MiB (6%)
  55. Default : Yes
  56. Alternate group : 1
复制代码
[1993][中国][笑剧]我爱我家 [腾讯高清修复版120集].I.Love.My.Family.S01.1993.1080p.WEB-DL.H264.AAC-HHWEB 44.24GB-2.jpg








回复

使用道具 举报

蓝光币
1
发表于 2024-2-28 06:23:25 | 显示全部楼层
:D:hug::handshake
回复

使用道具 举报

蓝光币
1
发表于 2024-3-4 15:17:07 | 显示全部楼层
感谢楼主分享,会回味的
回复

使用道具 举报

蓝光币
59
发表于 2024-3-19 16:59:57 | 显示全部楼层
谢谢楼主分享
回复

使用道具 举报

蓝光币
1379
发表于 2024-4-1 00:04:26 | 显示全部楼层
这个真好。点赞
回复

使用道具 举报

蓝光币
0
发表于 2024-6-14 13:07:32 | 显示全部楼层
太经典了 终于有修复版了
回复

使用道具 举报

懒得打字嘛,点击右侧快捷回复 【右侧内容,后台自定义】
您需要登录后才可以回帖 登录 | 立即加入

本版积分规则

Archiver| |网站地图

Copyright © 2024 Comsenz Inc. Powered by 蓝光电影网

本站内容由用户自主分享和转载自互联网,转载目的在于传递更多信息,并不代表本网赞同其观点和对其真实性负责。

如有侵权、违反国家法律政策行为,请联系我们,我们会第一时间及时清除和处理!

举报反馈邮箱:4k1080.com@gmail.com

快速回复 返回顶部 返回列表