找回密码

蓝光电影网

查看: 16|回复: 0

[其他] 宝可梦:被称为神的阿尔宙斯 Pokemon.The.Arceus.Chronicles.2022.DUBBED.1080p.NF.WEBRip.DDP2.0.x264-SMURF 1.57GB

[复制链接]
蓝光币
975
发表于 2022-9-23 17:56:08 | 显示全部楼层 |阅读模式
[img][/img]

◎标  题 宝可梦:被称为神的阿尔宙斯
◎译  名 宝可梦旅途出格篇
◎片  名 ポケットモンスター 神とよばれし アルセウス
◎年  代 2022
◎产  地 日本
◎类  别 动画 / 冒险
◎语  言 日语
◎上映日期 2022-01-21(日本)
◎IMDb链接 https://www.imdb.com/title/tt21970564/
◎豆瓣评分 7.5/10 (138人评价)
◎豆瓣链接 https://movie.douban.com/subject/35705807/
◎片  长 17分钟
◎导  演 富安大贵 Tomiyasu Daiki
       浅田裕二 Asada Yuuji
       富冈淳广 Atsuhiro Tomioka
◎编  剧 富冈淳广 Atsuhiro Tomioka
◎演  员 松本梨香 Rica Matsumoto
       大谷育江 Ikue Ootani
       丰口惠美 Megumi Toyoguchi
       山下大辉 Daiki Yamashita
       上田祐司 Yûji Ueda
       坂田将吾 Shogo Sakata
◎简  介

  这部以新奥地域为舞台的出格篇,除了小智和小豪之外,以小光为首的使人怀念的伙伴们进场,策划着奥秘计划的银河队、被称为神的宝可梦·阿尔宙斯也行将退场。
  1. Video
  2. ID                                       : 1
  3. Format                                   : AVC
  4. Format/Info                              : Advanced Video Codec
  5. Format profile                           : [email protected]
  6. Format settings                          : CABAC / 3 Ref Frames
  7. Format settings, CABAC                   : Yes
  8. Format settings, Reference frames        : 3 frames
  9. Codec ID                                 : V_MPEG4/ISO/AVC
  10. Duration                                 : 1 h 4 min
  11. Bit rate mode                            : Variable
  12. Bit rate                                 : 3 345 kb/s
  13. Nominal bit rate                         : 3 714 kb/s
  14. Maximum bit rate                         : 5 745 kb/s
  15. Width                                    : 1 920 pixels
  16. Height                                   : 1 080 pixels
  17. Display aspect ratio                     : 16:9
  18. Frame rate mode                          : Constant
  19. Frame rate                               : 23.976 (24000/1001/189150) FPS
  20. Color space                              : YUV
  21. Chroma subsampling                       : 4:2:0
  22. Bit depth                                : 8 bits
  23. Scan type                                : Progressive
  24. Bits/(Pixel*Frame)                       : 0.067
  25. Stream size                              : 1.51 GiB (96%)
  26. Writing library                          : x264 core 148 r2727 7d026e8
  27. Encoding settings                        : cabac=1 / ref=3 / deblock=1:0:0 / analyse=0x1:0x111 / me=umh / subme=10 / psy=1 / psy_rd=1.00:0.00 / mixed_ref=1 / me_range=24 / chroma_me=1 / trellis=2 / 8x8dct=0 / cqm=0 / deadzone=21,11 / fast_pskip=1 / chroma_qp_offset=-2 / threads=6 / lookahead_threads=1 / sliced_threads=0 / nr=0 / decimate=1 / interlaced=0 / bluray_compat=0 / stitchable=1 / constrained_intra=0 / bframes=2 / b_pyramid=0 / b_adapt=2 / b_bias=0 / direct=3 / weightb=1 / open_gop=0 / weightp=2 / keyint=250 / keyint_min=23 / scenecut=0 / intra_refresh=0 / rc_lookahead=48 / rc=2pass / mbtree=1 / bitrate=3714 / ratetol=1.0 / qcomp=0.50 / qpmin=6 / qpmax=51 / qpstep=4 / cplxblur=20.0 / qblur=0.5 / vbv_maxrate=5745 / vbv_bufsize=7660 / nal_hrd=vbr / filler=0 / ip_ratio=1.40 / aq=1:1.00
  28. Language                                 : English
  29. Default                                  : Yes
  30. Forced                                   : No
  31. Audio
  32. ID                                       : 2
  33. Format                                   : E-AC-3
  34. Format/Info                              : Enhanced AC-3
  35. Commercial name                          : Dolby Digital Plus
  36. Codec ID                                 : A_EAC3
  37. Duration                                 : 1 h 4 min
  38. Bit rate mode                            : Constant
  39. Bit rate                                 : 128 kb/s
  40. Channel(s)                               : 2 channels
  41. Channel layout                           : L R
  42. Sampling rate                            : 48.0 kHz
  43. Frame rate                               : 31.250 FPS (1536 SPF)
  44. Compression mode                         : Lossy
  45. Stream size                              : 59.3 MiB (4%)
  46. Language                                 : English
  47. Service kind                             : Complete Main
  48. Default                                  : Yes
  49. Forced                                   : No
  50. Text #1
  51. ID                                       : 3
  52. Format                                   : UTF-8
  53. Codec ID                                 : S_TEXT/UTF8
  54. Codec ID/Info                            : UTF-8 Plain Text
  55. Duration                                 : 1 h 2 min
  56. Bit rate                                 : 50 b/s
  57. Frame rate                               : 0.210 FPS
  58. Count of elements                        : 786
  59. Stream size                              : 23.1 KiB (0%)
  60. Language                                 : English
  61. Default                                  : No
  62. Forced                                   : No
  63. Text #2
  64. ID                                       : 4
  65. Format                                   : UTF-8
  66. Codec ID                                 : S_TEXT/UTF8
  67. Codec ID/Info                            : UTF-8 Plain Text
  68. Duration                                 : 1 h 2 min
  69. Bit rate                                 : 64 b/s
  70. Frame rate                               : 0.302 FPS
  71. Count of elements                        : 1131
  72. Stream size                              : 29.5 KiB (0%)
  73. Title                                    : SDH
  74. Language                                 : English
  75. Default                                  : No
  76. Forced                                   : No
  77. Text #3
  78. ID                                       : 5
  79. Format                                   : UTF-8
  80. Codec ID                                 : S_TEXT/UTF8
  81. Codec ID/Info                            : UTF-8 Plain Text
  82. Duration                                 : 1 h 2 min
  83. Bit rate                                 : 75 b/s
  84. Frame rate                               : 0.156 FPS
  85. Count of elements                        : 586
  86. Stream size                              : 34.6 KiB (0%)
  87. Language                                 : Arabic
  88. Default                                  : No
  89. Forced                                   : No
  90. Text #4
  91. ID                                       : 6
  92. Format                                   : UTF-8
  93. Codec ID                                 : S_TEXT/UTF8
  94. Codec ID/Info                            : UTF-8 Plain Text
  95. Duration                                 : 1 h 2 min
  96. Bit rate                                 : 41 b/s
  97. Frame rate                               : 0.156 FPS
  98. Count of elements                        : 586
  99. Stream size                              : 19.1 KiB (0%)
  100. Language                                 : Czech
  101. Default                                  : No
  102. Forced                                   : No
  103. Text #5
  104. ID                                       : 7
  105. Format                                   : UTF-8
  106. Codec ID                                 : S_TEXT/UTF8
  107. Codec ID/Info                            : UTF-8 Plain Text
  108. Duration                                 : 1 h 2 min
  109. Bit rate                                 : 41 b/s
  110. Frame rate                               : 0.148 FPS
  111. Count of elements                        : 556
  112. Stream size                              : 19.0 KiB (0%)
  113. Language                                 : Danish
  114. Default                                  : No
  115. Forced                                   : No
  116. Text #6
  117. ID                                       : 8
  118. Format                                   : UTF-8
  119. Codec ID                                 : S_TEXT/UTF8
  120. Codec ID/Info                            : UTF-8 Plain Text
  121. Duration                                 : 1 h 2 min
  122. Bit rate                                 : 40 b/s
  123. Frame rate                               : 0.156 FPS
  124. Count of elements                        : 586
  125. Stream size                              : 18.6 KiB (0%)
  126. Language                                 : German
  127. Default                                  : No
  128. Forced                                   : No
  129. Text #7
  130. ID                                       : 9
  131. Format                                   : UTF-8
  132. Codec ID                                 : S_TEXT/UTF8
  133. Codec ID/Info                            : UTF-8 Plain Text
  134. Duration                                 : 1 h 3 min
  135. Bit rate                                 : 63 b/s
  136. Frame rate                               : 0.145 FPS
  137. Count of elements                        : 552
  138. Stream size                              : 29.6 KiB (0%)
  139. Language                                 : Greek
  140. Default                                  : No
  141. Forced                                   : No
  142. Text #8
  143. ID                                       : 10
  144. Format                                   : UTF-8
  145. Codec ID                                 : S_TEXT/UTF8
  146. Codec ID/Info                            : UTF-8 Plain Text
  147. Duration                                 : 1 h 2 min
  148. Bit rate                                 : 42 b/s
  149. Frame rate                               : 0.152 FPS
  150. Count of elements                        : 570
  151. Stream size                              : 19.7 KiB (0%)
  152. Language                                 : Spanish
  153. Default                                  : No
  154. Forced                                   : No
  155. Text #9
  156. ID                                       : 11
  157. Format                                   : UTF-8
  158. Codec ID                                 : S_TEXT/UTF8
  159. Codec ID/Info                            : UTF-8 Plain Text
  160. Duration                                 : 1 h 2 min
  161. Bit rate                                 : 42 b/s
  162. Frame rate                               : 0.175 FPS
  163. Count of elements                        : 658
  164. Stream size                              : 19.6 KiB (0%)
  165. Title                                    : European
  166. Language                                 : Spanish
  167. Default                                  : No
  168. Forced                                   : No
  169. Text #10
  170. ID                                       : 12
  171. Format                                   : UTF-8
  172. Codec ID                                 : S_TEXT/UTF8
  173. Codec ID/Info                            : UTF-8 Plain Text
  174. Duration                                 : 1 h 2 min
  175. Bit rate                                 : 41 b/s
  176. Frame rate                               : 0.144 FPS
  177. Count of elements                        : 541
  178. Stream size                              : 19.1 KiB (0%)
  179. Language                                 : Finnish
  180. Default                                  : No
  181. Forced                                   : No
  182. Text #11
  183. ID                                       : 13
  184. Format                                   : UTF-8
  185. Codec ID                                 : S_TEXT/UTF8
  186. Codec ID/Info                            : UTF-8 Plain Text
  187. Duration                                 : 1 h 2 min
  188. Bit rate                                 : 42 b/s
  189. Frame rate                               : 0.164 FPS
  190. Count of elements                        : 615
  191. Stream size                              : 19.6 KiB (0%)
  192. Language                                 : French
  193. Default                                  : No
  194. Forced                                   : No
  195. Text #12
  196. ID                                       : 14
  197. Format                                   : UTF-8
  198. Codec ID                                 : S_TEXT/UTF8
  199. Codec ID/Info                            : UTF-8 Plain Text
  200. Duration                                 : 1 h 2 min
  201. Bit rate                                 : 73 b/s
  202. Frame rate                               : 0.154 FPS
  203. Count of elements                        : 578
  204. Stream size                              : 33.7 KiB (0%)
  205. Language                                 : Hebrew
  206. Default                                  : No
  207. Forced                                   : No
  208. Text #13
  209. ID                                       : 15
  210. Format                                   : UTF-8
  211. Codec ID                                 : S_TEXT/UTF8
  212. Codec ID/Info                            : UTF-8 Plain Text
  213. Duration                                 : 1 h 3 min
  214. Bit rate                                 : 38 b/s
  215. Frame rate                               : 0.149 FPS
  216. Count of elements                        : 568
  217. Stream size                              : 17.9 KiB (0%)
  218. Language                                 : Croatian
  219. Default                                  : No
  220. Forced                                   : No
  221. Text #14
  222. ID                                       : 16
  223. Format                                   : UTF-8
  224. Codec ID                                 : S_TEXT/UTF8
  225. Codec ID/Info                            : UTF-8 Plain Text
  226. Duration                                 : 1 h 3 min
  227. Bit rate                                 : 39 b/s
  228. Frame rate                               : 0.148 FPS
  229. Count of elements                        : 565
  230. Stream size                              : 18.3 KiB (0%)
  231. Language                                 : Hungarian
  232. Default                                  : No
  233. Forced                                   : No
  234. Text #15
  235. ID                                       : 17
  236. Format                                   : UTF-8
  237. Codec ID                                 : S_TEXT/UTF8
  238. Codec ID/Info                            : UTF-8 Plain Text
  239. Duration                                 : 1 h 2 min
  240. Bit rate                                 : 40 b/s
  241. Frame rate                               : 0.151 FPS
  242. Count of elements                        : 568
  243. Stream size                              : 18.5 KiB (0%)
  244. Language                                 : Italian
  245. Default                                  : No
  246. Forced                                   : No
  247. Text #16
  248. ID                                       : 18
  249. Format                                   : UTF-8
  250. Codec ID                                 : S_TEXT/UTF8
  251. Codec ID/Info                            : UTF-8 Plain Text
  252. Duration                                 : 1 h 2 min
  253. Bit rate                                 : 42 b/s
  254. Frame rate                               : 0.130 FPS
  255. Count of elements                        : 490
  256. Stream size                              : 19.6 KiB (0%)
  257. Language                                 : Norwegian Bokmal
  258. Default                                  : No
  259. Forced                                   : No
  260. Text #17
  261. ID                                       : 19
  262. Format                                   : UTF-8
  263. Codec ID                                 : S_TEXT/UTF8
  264. Codec ID/Info                            : UTF-8 Plain Text
  265. Duration                                 : 1 h 2 min
  266. Bit rate                                 : 44 b/s
  267. Frame rate                               : 0.144 FPS
  268. Count of elements                        : 541
  269. Stream size                              : 20.4 KiB (0%)
  270. Language                                 : Dutch
  271. Default                                  : No
  272. Forced                                   : No
  273. Text #18
  274. ID                                       : 20
  275. Format                                   : UTF-8
  276. Codec ID                                 : S_TEXT/UTF8
  277. Codec ID/Info                            : UTF-8 Plain Text
  278. Duration                                 : 1 h 2 min
  279. Bit rate                                 : 42 b/s
  280. Frame rate                               : 0.144 FPS
  281. Count of elements                        : 540
  282. Stream size                              : 19.4 KiB (0%)
  283. Language                                 : Polish
  284. Default                                  : No
  285. Forced                                   : No
  286. Text #19
  287. ID                                       : 21
  288. Format                                   : UTF-8
  289. Codec ID                                 : S_TEXT/UTF8
  290. Codec ID/Info                            : UTF-8 Plain Text
  291. Duration                                 : 1 h 2 min
  292. Bit rate                                 : 42 b/s
  293. Frame rate                               : 0.155 FPS
  294. Count of elements                        : 583
  295. Stream size                              : 19.7 KiB (0%)
  296. Language                                 : Portuguese
  297. Default                                  : No
  298. Forced                                   : No
  299. Text #20
  300. ID                                       : 22
  301. Format                                   : UTF-8
  302. Codec ID                                 : S_TEXT/UTF8
  303. Codec ID/Info                            : UTF-8 Plain Text
  304. Duration                                 : 1 h 2 min
  305. Bit rate                                 : 45 b/s
  306. Frame rate                               : 0.155 FPS
  307. Count of elements                        : 583
  308. Stream size                              : 20.9 KiB (0%)
  309. Title                                    : Brazilian
  310. Language                                 : Portuguese
  311. Default                                  : No
  312. Forced                                   : No
  313. Text #21
  314. ID                                       : 23
  315. Format                                   : UTF-8
  316. Codec ID                                 : S_TEXT/UTF8
  317. Codec ID/Info                            : UTF-8 Plain Text
  318. Duration                                 : 1 h 3 min
  319. Bit rate                                 : 48 b/s
  320. Frame rate                               : 0.155 FPS
  321. Count of elements                        : 592
  322. Stream size                              : 22.8 KiB (0%)
  323. Language                                 : Romanian
  324. Default                                  : No
  325. Forced                                   : No
  326. Text #22
  327. ID                                       : 24
  328. Format                                   : UTF-8
  329. Codec ID                                 : S_TEXT/UTF8
  330. Codec ID/Info                            : UTF-8 Plain Text
  331. Duration                                 : 1 h 2 min
  332. Bit rate                                 : 70 b/s
  333. Frame rate                               : 0.156 FPS
  334. Count of elements                        : 586
  335. Stream size                              : 32.2 KiB (0%)
  336. Language                                 : Russian
  337. Default                                  : No
  338. Forced                                   : No
  339. Text #23
  340. ID                                       : 25
  341. Format                                   : UTF-8
  342. Codec ID                                 : S_TEXT/UTF8
  343. Codec ID/Info                            : UTF-8 Plain Text
  344. Duration                                 : 1 h 2 min
  345. Bit rate                                 : 43 b/s
  346. Frame rate                               : 0.149 FPS
  347. Count of elements                        : 560
  348. Stream size                              : 19.8 KiB (0%)
  349. Language                                 : Swedish
  350. Default                                  : No
  351. Forced                                   : No
  352. Text #24
  353. ID                                       : 26
  354. Format                                   : UTF-8
  355. Codec ID                                 : S_TEXT/UTF8
  356. Codec ID/Info                            : UTF-8 Plain Text
  357. Duration                                 : 1 h 2 min
  358. Bit rate                                 : 45 b/s
  359. Frame rate                               : 0.155 FPS
  360. Count of elements                        : 583
  361. Stream size                              : 20.9 KiB (0%)
  362. Language                                 : Turkish
  363. Default                                  : No
  364. Forced                                   : No
  365. Text #25
  366. ID                                       : 27
  367. Format                                   : UTF-8
  368. Codec ID                                 : S_TEXT/UTF8
  369. Codec ID/Info                            : UTF-8 Plain Text
  370. Duration                                 : 1 h 3 min
  371. Bit rate                                 : 64 b/s
  372. Frame rate                               : 0.150 FPS
  373. Count of elements                        : 571
  374. Stream size                              : 30.3 KiB (0%)
  375. Language                                 : Ukrainian
  376. Default                                  : No
  377. Forced                                   : No
复制代码




                                       
                                       

                                       
                                       
                                       




回复

使用道具 举报

懒得打字嘛,点击右侧快捷回复 【右侧内容,后台自定义】
您需要登录后才可以回帖 登录 | 立即加入

本版积分规则

Archiver|小黑屋| 蓝光电影网 |网站地图

Copyright © 2021 Comsenz Inc. Powered by 蓝光电影网

蓝光电影网

本站内容由用户自主分享和转载自互联网,转载目的在于传递更多信息,并不代表本网赞同其观点和对其真实性负责。

如有侵权、违反国家法律政策行为,请联系我们,我们会第一时间及时清除和处理!

举报反馈邮箱:[email protected]

快速回复 返回顶部 返回列表