找回密码

查看: 1223|回复: 0

[2160p-WEB] 蓝调天后[中文字幕].Ma.Raineys.Black.Bottom.2020.2160p.NF.WEB-DL.x265.10bit.HDR.DDP5.1.Atmos-COPiUM 13.13GB

[复制链接]
蓝光币
1840
发表于 2023-1-2 14:57:31 | 显示全部楼层 |阅读模式


◎标  题 蓝调天后
◎译  名 玛雷尼的黑臀舞 / 玛雷尼的扭摆舞 / 马雷尼的黑底
◎片  名 Ma Rainey's Black Bottom
◎年  代 2020
◎产  地 美国
◎类  别 剧情 / 音乐
◎语  言 英语
◎上映日期 2020-12-18(美国收集)
◎IMDb评分 6.9/10 (54226人评价)
◎IMDb链接 https://www.imdb.com/title/tt10514222/
◎豆瓣评分 6.5/10 (4714人评价)
◎豆瓣链接 https://movie.douban.com/subject/34439631/
◎片  长 94分钟
◎导  演 乔治·乌尔夫 George C. Wolfe
◎编  剧 鲁本·桑地亚哥-哈德森 Ruben Santiago-Hudson
       奥古斯特·威尔逊 August Wilson
◎演  员 维奥拉·戴维斯 Viola Davis
       查德维克·博斯曼 Chadwick Boseman
       科尔曼·多明戈 Colman Domingo
       格林·特鲁曼 Glynn Turman
       迈克尔·波茨 Michael Potts
       杰里米萨默斯 Jeremy Shamos
       约翰尼·科瓦内 Jonny Coyne
       泰勒·佩姬 Taylour Paige
       杜山·布朗 Dusan Brown
       约书亚·哈尔托 Joshua Harto
       奎因·范安特卫普 Quinn VanAntwerp
       克洛伊·戴维斯 Chloe Davis
       梅特·纳塔利奥 Mayte Natalio
       约翰娜·埃尔米纳·莫伊兹 Johanna Elmina Moise
       Onyxx Noel Onyxx Noel
       詹姆斯·西耶斯基 James Ciesielski
       威廉·卡尼亚 William Kania
       托比亚斯 A·施利斯勒 Tobias A. Schliessler
       马克·瑞克 Mark Ricker
       安·罗斯 Ann Roth
       塞尔吉奥·洛佩斯-里维拉 Sergio Lopez-Rivera
◎简  介
  20世纪20 年月,在芝加哥的一场午后录音中,乐队成员们正在期待开辟性的表演者、传奇的“蓝调之母”玛·雷尼(奥斯卡金像奖得主维奥拉·戴维斯饰),其间氛围变得愈发严重。录音停止到前期时,无畏又脾性火爆的玛和其白人掮客人及建造人就她的音乐控制权展开了一场意志的较劲。大志勃勃的小号手列维(查德维克·博斯曼饰)很是欣赏玛的女朋友,并决心在音乐行业中占有一席之地,当乐队在工作室幽闭的排演室中期待时,他促使乐手们爆出揭穿真相的故事,这将永久改变他们的生活。                                       
                                    《蓝调天后》按照两次普利策奖得主奥古斯特·威尔逊的戏剧改编而成,称道了蓝调的变化气力以及那些拒绝让社会偏见左右自己代价的艺术家。该电影由乔治·乌尔夫执导,鲁本·桑地亚哥-哈德森停止剧本改编,凭仗《藩篱》荣获奥斯卡奖提名的丹泽尔·华盛顿和托德·布莱克担任制片人。科尔曼·多明戈、格林·特鲁曼、迈克尔·波茨、泰勒·...
  1. Video
  2. ID                                       : 1
  3. Format                                   : HEVC
  4. Format/Info                              : High Efficiency Video Coding
  5. Format profile                           : Main 10@L5@Main
  6. HDR format                               : Dolby Vision, Version 1.0, dvhe.08.06, BL+RPU, HDR10 compatible / SMPTE ST 2086, HDR10 compatible
  7. Codec ID                                 : V_MPEGH/ISO/HEVC
  8. Duration                                 : 1 h 33 min
  9. Bit rate                                 : 19.3 Mb/s
  10. Width                                    : 3 840 pixels
  11. Height                                   : 2 160 pixels
  12. Display aspect ratio                     : 16:9
  13. Frame rate mode                          : Constant
  14. Frame rate                               : 24.000 FPS
  15. Color space                              : YUV
  16. Chroma subsampling                       : 4:2:0 (Type 2)
  17. Bit depth                                : 10 bits
  18. Bits/(Pixel*Frame)                       : 0.097
  19. Stream size                              : 12.6 GiB (96%)
  20. Language                                 : English
  21. Default                                  : Yes
  22. Forced                                   : No
  23. Color range                              : Limited
  24. Color primaries                          : BT.2020
  25. Transfer characteristics                 : PQ
  26. Matrix coefficients                      : BT.2020 non-constant
  27. Mastering display color primaries        : Display P3
  28. Mastering display luminance              : min: 0.0001 cd/m2, max: 1000 cd/m2
  29. Maximum Content Light Level              : 3975 cd/m2
  30. Maximum Frame-Average Light Level        : 532 cd/m2
  31. Audio
  32. ID                                       : 2
  33. Format                                   : E-AC-3 JOC
  34. Format/Info                              : Enhanced AC-3 with Joint Object Coding
  35. Commercial name                          : Dolby Digital Plus with Dolby Atmos
  36. Codec ID                                 : A_EAC3
  37. Duration                                 : 1 h 34 min
  38. Bit rate mode                            : Constant
  39. Bit rate                                 : 768 kb/s
  40. Channel(s)                               : 6 channels
  41. Channel layout                           : L R C LFE Ls Rs
  42. Sampling rate                            : 48.0 kHz
  43. Frame rate                               : 31.250 FPS (1536 SPF)
  44. Compression mode                         : Lossy
  45. Stream size                              : 517 MiB (4%)
  46. Language                                 : English
  47. Service kind                             : Complete Main
  48. Default                                  : Yes
  49. Forced                                   : No
  50. Complexity index                         : 16
  51. Number of dynamic objects                : 15
  52. Bed channel count                        : 1 channel
  53. Bed channel configuration                : LFE
  54. Text #1
  55. ID                                       : 3
  56. Format                                   : UTF-8
  57. Codec ID                                 : S_TEXT/UTF8
  58. Codec ID/Info                            : UTF-8 Plain Text
  59. Duration                                 : 1 h 22 min
  60. Bit rate                                 : 94 b/s
  61. Frame rate                               : 0.277 FPS
  62. Count of elements                        : 1368
  63. Stream size                              : 57.2 KiB (0%)
  64. Language                                 : English
  65. Default                                  : No
  66. Forced                                   : No
  67. Text #2
  68. ID                                       : 4
  69. Format                                   : UTF-8
  70. Codec ID                                 : S_TEXT/UTF8
  71. Codec ID/Info                            : UTF-8 Plain Text
  72. Duration                                 : 1 h 27 min
  73. Bit rate                                 : 101 b/s
  74. Frame rate                               : 0.306 FPS
  75. Count of elements                        : 1606
  76. Stream size                              : 64.9 KiB (0%)
  77. Title                                    : SDH
  78. Language                                 : English
  79. Default                                  : No
  80. Forced                                   : No
  81. Text #3
  82. ID                                       : 5
  83. Format                                   : UTF-8
  84. Codec ID                                 : S_TEXT/UTF8
  85. Codec ID/Info                            : UTF-8 Plain Text
  86. Duration                                 : 1 h 33 min
  87. Bit rate                                 : 112 b/s
  88. Frame rate                               : 0.232 FPS
  89. Count of elements                        : 1293
  90. Stream size                              : 76.5 KiB (0%)
  91. Language                                 : Arabic
  92. Default                                  : No
  93. Forced                                   : No
  94. Text #4
  95. ID                                       : 6
  96. Format                                   : UTF-8
  97. Codec ID                                 : S_TEXT/UTF8
  98. Codec ID/Info                            : UTF-8 Plain Text
  99. Duration                                 : 1 h 33 min
  100. Bit rate                                 : 64 b/s
  101. Frame rate                               : 0.223 FPS
  102. Count of elements                        : 1245
  103. Stream size                              : 44.1 KiB (0%)
  104. Language                                 : Czech
  105. Default                                  : No
  106. Forced                                   : No
  107. Text #5
  108. ID                                       : 7
  109. Format                                   : UTF-8
  110. Codec ID                                 : S_TEXT/UTF8
  111. Codec ID/Info                            : UTF-8 Plain Text
  112. Duration                                 : 1 h 33 min
  113. Bit rate                                 : 63 b/s
  114. Frame rate                               : 0.206 FPS
  115. Count of elements                        : 1151
  116. Stream size                              : 43.5 KiB (0%)
  117. Language                                 : Danish
  118. Default                                  : No
  119. Forced                                   : No
  120. Text #6
  121. ID                                       : 8
  122. Format                                   : UTF-8
  123. Codec ID                                 : S_TEXT/UTF8
  124. Codec ID/Info                            : UTF-8 Plain Text
  125. Duration                                 : 1 h 33 min
  126. Bit rate                                 : 67 b/s
  127. Frame rate                               : 0.212 FPS
  128. Count of elements                        : 1184
  129. Stream size                              : 45.8 KiB (0%)
  130. Language                                 : German
  131. Default                                  : No
  132. Forced                                   : No
  133. Text #7
  134. ID                                       : 9
  135. Format                                   : UTF-8
  136. Codec ID                                 : S_TEXT/UTF8
  137. Codec ID/Info                            : UTF-8 Plain Text
  138. Duration                                 : 1 h 33 min
  139. Bit rate                                 : 114 b/s
  140. Frame rate                               : 0.221 FPS
  141. Count of elements                        : 1235
  142. Stream size                              : 77.8 KiB (0%)
  143. Language                                 : Greek
  144. Default                                  : No
  145. Forced                                   : No
  146. Text #8
  147. ID                                       : 10
  148. Format                                   : UTF-8
  149. Codec ID                                 : S_TEXT/UTF8
  150. Codec ID/Info                            : UTF-8 Plain Text
  151. Duration                                 : 1 h 33 min
  152. Bit rate                                 : 66 b/s
  153. Frame rate                               : 0.221 FPS
  154. Count of elements                        : 1232
  155. Stream size                              : 45.6 KiB (0%)
  156. Title                                    : Latin American
  157. Language                                 : Spanish (Latin America)
  158. Default                                  : No
  159. Forced                                   : No
  160. Text #9
  161. ID                                       : 11
  162. Format                                   : UTF-8
  163. Codec ID                                 : S_TEXT/UTF8
  164. Codec ID/Info                            : UTF-8 Plain Text
  165. Duration                                 : 1 h 33 min
  166. Bit rate                                 : 68 b/s
  167. Frame rate                               : 0.221 FPS
  168. Count of elements                        : 1236
  169. Stream size                              : 46.7 KiB (0%)
  170. Language                                 : Spanish (ES)
  171. Default                                  : No
  172. Forced                                   : No
  173. Text #10
  174. ID                                       : 12
  175. Format                                   : UTF-8
  176. Codec ID                                 : S_TEXT/UTF8
  177. Codec ID/Info                            : UTF-8 Plain Text
  178. Duration                                 : 1 h 33 min
  179. Bit rate                                 : 58 b/s
  180. Frame rate                               : 0.211 FPS
  181. Count of elements                        : 1180
  182. Stream size                              : 40.2 KiB (0%)
  183. Language                                 : Finnish
  184. Default                                  : No
  185. Forced                                   : No
  186. Text #11
  187. ID                                       : 13
  188. Format                                   : UTF-8
  189. Codec ID                                 : S_TEXT/UTF8
  190. Codec ID/Info                            : UTF-8 Plain Text
  191. Duration                                 : 1 h 33 min
  192. Bit rate                                 : 64 b/s
  193. Frame rate                               : 0.222 FPS
  194. Count of elements                        : 1239
  195. Stream size                              : 43.8 KiB (0%)
  196. Language                                 : French
  197. Default                                  : No
  198. Forced                                   : No
  199. Text #12
  200. ID                                       : 14
  201. Format                                   : UTF-8
  202. Codec ID                                 : S_TEXT/UTF8
  203. Codec ID/Info                            : UTF-8 Plain Text
  204. Duration                                 : 1 h 33 min
  205. Bit rate                                 : 112 b/s
  206. Frame rate                               : 0.226 FPS
  207. Count of elements                        : 1261
  208. Stream size                              : 76.7 KiB (0%)
  209. Language                                 : Hebrew
  210. Default                                  : No
  211. Forced                                   : No
  212. Text #13
  213. ID                                       : 15
  214. Format                                   : UTF-8
  215. Codec ID                                 : S_TEXT/UTF8
  216. Codec ID/Info                            : UTF-8 Plain Text
  217. Duration                                 : 1 h 33 min
  218. Bit rate                                 : 60 b/s
  219. Frame rate                               : 0.217 FPS
  220. Count of elements                        : 1212
  221. Stream size                              : 41.0 KiB (0%)
  222. Language                                 : Croatian
  223. Default                                  : No
  224. Forced                                   : No
  225. Text #14
  226. ID                                       : 16
  227. Format                                   : UTF-8
  228. Codec ID                                 : S_TEXT/UTF8
  229. Codec ID/Info                            : UTF-8 Plain Text
  230. Duration                                 : 1 h 33 min
  231. Bit rate                                 : 66 b/s
  232. Frame rate                               : 0.226 FPS
  233. Count of elements                        : 1261
  234. Stream size                              : 45.3 KiB (0%)
  235. Language                                 : Hungarian
  236. Default                                  : No
  237. Forced                                   : No
  238. Text #15
  239. ID                                       : 17
  240. Format                                   : UTF-8
  241. Codec ID                                 : S_TEXT/UTF8
  242. Codec ID/Info                            : UTF-8 Plain Text
  243. Duration                                 : 1 h 33 min
  244. Bit rate                                 : 68 b/s
  245. Frame rate                               : 0.231 FPS
  246. Count of elements                        : 1288
  247. Stream size                              : 46.7 KiB (0%)
  248. Language                                 : Indonesian
  249. Default                                  : No
  250. Forced                                   : No
  251. Text #16
  252. ID                                       : 18
  253. Format                                   : UTF-8
  254. Codec ID                                 : S_TEXT/UTF8
  255. Codec ID/Info                            : UTF-8 Plain Text
  256. Duration                                 : 1 h 33 min
  257. Bit rate                                 : 65 b/s
  258. Frame rate                               : 0.231 FPS
  259. Count of elements                        : 1288
  260. Stream size                              : 44.5 KiB (0%)
  261. Language                                 : Italian
  262. Default                                  : No
  263. Forced                                   : No
  264. Text #17
  265. ID                                       : 19
  266. Format                                   : UTF-8
  267. Codec ID                                 : S_TEXT/UTF8
  268. Codec ID/Info                            : UTF-8 Plain Text
  269. Duration                                 : 1 h 33 min
  270. Bit rate                                 : 61 b/s
  271. Frame rate                               : 0.195 FPS
  272. Count of elements                        : 1088
  273. Stream size                              : 41.9 KiB (0%)
  274. Language                                 : Japanese
  275. Default                                  : No
  276. Forced                                   : No
  277. Text #18
  278. ID                                       : 20
  279. Format                                   : UTF-8
  280. Codec ID                                 : S_TEXT/UTF8
  281. Codec ID/Info                            : UTF-8 Plain Text
  282. Duration                                 : 1 h 33 min
  283. Bit rate                                 : 88 b/s
  284. Frame rate                               : 0.233 FPS
  285. Count of elements                        : 1298
  286. Stream size                              : 60.3 KiB (0%)
  287. Language                                 : Korean
  288. Default                                  : No
  289. Forced                                   : No
  290. Text #19
  291. ID                                       : 21
  292. Format                                   : UTF-8
  293. Codec ID                                 : S_TEXT/UTF8
  294. Codec ID/Info                            : UTF-8 Plain Text
  295. Duration                                 : 1 h 33 min
  296. Bit rate                                 : 65 b/s
  297. Frame rate                               : 0.230 FPS
  298. Count of elements                        : 1283
  299. Stream size                              : 44.4 KiB (0%)
  300. Language                                 : Malay
  301. Default                                  : No
  302. Forced                                   : No
  303. Text #20
  304. ID                                       : 22
  305. Format                                   : UTF-8
  306. Codec ID                                 : S_TEXT/UTF8
  307. Codec ID/Info                            : UTF-8 Plain Text
  308. Duration                                 : 1 h 33 min
  309. Bit rate                                 : 63 b/s
  310. Frame rate                               : 0.208 FPS
  311. Count of elements                        : 1161
  312. Stream size                              : 43.6 KiB (0%)
  313. Language                                 : Norwegian Bokmal
  314. Default                                  : No
  315. Forced                                   : No
  316. Text #21
  317. ID                                       : 23
  318. Format                                   : UTF-8
  319. Codec ID                                 : S_TEXT/UTF8
  320. Codec ID/Info                            : UTF-8 Plain Text
  321. Duration                                 : 1 h 33 min
  322. Bit rate                                 : 63 b/s
  323. Frame rate                               : 0.196 FPS
  324. Count of elements                        : 1092
  325. Stream size                              : 43.4 KiB (0%)
  326. Language                                 : Dutch
  327. Default                                  : No
  328. Forced                                   : No
  329. Text #22
  330. ID                                       : 24
  331. Format                                   : UTF-8
  332. Codec ID                                 : S_TEXT/UTF8
  333. Codec ID/Info                            : UTF-8 Plain Text
  334. Duration                                 : 1 h 33 min
  335. Bit rate                                 : 63 b/s
  336. Frame rate                               : 0.233 FPS
  337. Count of elements                        : 1302
  338. Stream size                              : 43.4 KiB (0%)
  339. Language                                 : Polish
  340. Default                                  : No
  341. Forced                                   : No
  342. Text #23
  343. ID                                       : 25
  344. Format                                   : UTF-8
  345. Codec ID                                 : S_TEXT/UTF8
  346. Codec ID/Info                            : UTF-8 Plain Text
  347. Duration                                 : 1 h 33 min
  348. Bit rate                                 : 66 b/s
  349. Frame rate                               : 0.232 FPS
  350. Count of elements                        : 1294
  351. Stream size                              : 45.5 KiB (0%)
  352. Title                                    : Brazilian
  353. Language                                 : Portuguese (BR)
  354. Default                                  : No
  355. Forced                                   : No
  356. Text #24
  357. ID                                       : 26
  358. Format                                   : UTF-8
  359. Codec ID                                 : S_TEXT/UTF8
  360. Codec ID/Info                            : UTF-8 Plain Text
  361. Duration                                 : 1 h 33 min
  362. Bit rate                                 : 63 b/s
  363. Frame rate                               : 0.224 FPS
  364. Count of elements                        : 1251
  365. Stream size                              : 43.4 KiB (0%)
  366. Language                                 : Portuguese (PT)
  367. Default                                  : No
  368. Forced                                   : No
  369. Text #25
  370. ID                                       : 27
  371. Format                                   : UTF-8
  372. Codec ID                                 : S_TEXT/UTF8
  373. Codec ID/Info                            : UTF-8 Plain Text
  374. Duration                                 : 1 h 33 min
  375. Bit rate                                 : 76 b/s
  376. Frame rate                               : 0.206 FPS
  377. Count of elements                        : 1149
  378. Stream size                              : 52.4 KiB (0%)
  379. Language                                 : Romanian
  380. Default                                  : No
  381. Forced                                   : No
  382. Text #26
  383. ID                                       : 28
  384. Format                                   : UTF-8
  385. Codec ID                                 : S_TEXT/UTF8
  386. Codec ID/Info                            : UTF-8 Plain Text
  387. Duration                                 : 1 h 33 min
  388. Bit rate                                 : 112 b/s
  389. Frame rate                               : 0.227 FPS
  390. Count of elements                        : 1266
  391. Stream size                              : 77.0 KiB (0%)
  392. Language                                 : Russian
  393. Default                                  : No
  394. Forced                                   : No
  395. Text #27
  396. ID                                       : 29
  397. Format                                   : UTF-8
  398. Codec ID                                 : S_TEXT/UTF8
  399. Codec ID/Info                            : UTF-8 Plain Text
  400. Duration                                 : 1 h 33 min
  401. Bit rate                                 : 66 b/s
  402. Frame rate                               : 0.197 FPS
  403. Count of elements                        : 1098
  404. Stream size                              : 45.4 KiB (0%)
  405. Language                                 : Swedish
  406. Default                                  : No
  407. Forced                                   : No
  408. Text #28
  409. ID                                       : 30
  410. Format                                   : UTF-8
  411. Codec ID                                 : S_TEXT/UTF8
  412. Codec ID/Info                            : UTF-8 Plain Text
  413. Duration                                 : 1 h 33 min
  414. Bit rate                                 : 178 b/s
  415. Frame rate                               : 0.232 FPS
  416. Count of elements                        : 1294
  417. Stream size                              : 122 KiB (0%)
  418. Language                                 : Thai
  419. Default                                  : No
  420. Forced                                   : No
  421. Text #29
  422. ID                                       : 31
  423. Format                                   : UTF-8
  424. Codec ID                                 : S_TEXT/UTF8
  425. Codec ID/Info                            : UTF-8 Plain Text
  426. Duration                                 : 1 h 33 min
  427. Bit rate                                 : 67 b/s
  428. Frame rate                               : 0.231 FPS
  429. Count of elements                        : 1290
  430. Stream size                              : 45.8 KiB (0%)
  431. Language                                 : Turkish
  432. Default                                  : No
  433. Forced                                   : No
  434. Text #30
  435. ID                                       : 32
  436. Format                                   : UTF-8
  437. Codec ID                                 : S_TEXT/UTF8
  438. Codec ID/Info                            : UTF-8 Plain Text
  439. Duration                                 : 1 h 33 min
  440. Bit rate                                 : 112 b/s
  441. Frame rate                               : 0.230 FPS
  442. Count of elements                        : 1285
  443. Stream size                              : 76.9 KiB (0%)
  444. Language                                 : Ukrainian
  445. Default                                  : No
  446. Forced                                   : No
  447. Text #31
  448. ID                                       : 33
  449. Format                                   : UTF-8
  450. Codec ID                                 : S_TEXT/UTF8
  451. Codec ID/Info                            : UTF-8 Plain Text
  452. Duration                                 : 1 h 33 min
  453. Bit rate                                 : 94 b/s
  454. Frame rate                               : 0.231 FPS
  455. Count of elements                        : 1290
  456. Stream size                              : 64.4 KiB (0%)
  457. Language                                 : Vietnamese
  458. Default                                  : No
  459. Forced                                   : No
  460. Text #32
  461. ID                                       : 34
  462. Format                                   : UTF-8
  463. Codec ID                                 : S_TEXT/UTF8
  464. Codec ID/Info                            : UTF-8 Plain Text
  465. Duration                                 : 1 h 33 min
  466. Bit rate                                 : 77 b/s
  467. Frame rate                               : 0.232 FPS
  468. Count of elements                        : 1294
  469. Stream size                              : 53.0 KiB (0%)
  470. Title                                    : Simplified
  471. Language                                 : Chinese (Simplied)
  472. Default                                  : No
  473. Forced                                   : No
  474. Text #33
  475. ID                                       : 35
  476. Format                                   : UTF-8
  477. Codec ID                                 : S_TEXT/UTF8
  478. Codec ID/Info                            : UTF-8 Plain Text
  479. Duration                                 : 1 h 33 min
  480. Bit rate                                 : 72 b/s
  481. Frame rate                               : 0.255 FPS
  482. Count of elements                        : 1425
  483. Stream size                              : 49.5 KiB (0%)
  484. Title                                    : Traditional
  485. Language                                 : Chinese (Traditional)
  486. Default                                  : No
  487. Forced                                   : No
  488. Menu
  489. 01:28:17.000                             : en:End Credits
复制代码











回复

使用道具 举报

懒得打字嘛,点击右侧快捷回复 【右侧内容,后台自定义】
您需要登录后才可以回帖 登录 | 立即加入

本版积分规则

Copyright © 2024 Comsenz Inc. Powered by 蓝光电影网

本站内容由用户自主分享和转载自互联网,转载目的在于传递更多信息,并不代表本网赞同其观点和对其真实性负责。

如有侵权、违反国家法律政策行为,请联系我们,我们会第一时间及时清除和处理!

举报反馈邮箱:4k1080.com@gmail.com

快速回复 返回顶部 返回列表