找回密码

查看: 1184|回复: 0

[2160p-WEB] 蓝调天后[中文字幕].Ma.Raineys.Black.Bottom.2020.2160p.NF.WEB-DL.x265.10bit.SDR.DDP5.1.Atmos-COPiUM 8.00GB

[复制链接]
蓝光币
1840
发表于 2023-1-2 14:57:32 | 显示全部楼层 |阅读模式


◎标  题 蓝调天后
◎译  名 玛雷尼的黑臀舞 / 玛雷尼的扭摆舞 / 马雷尼的黑底
◎片  名 Ma Rainey's Black Bottom
◎年  代 2020
◎产  地 美国
◎类  别 剧情 / 音乐
◎语  言 英语
◎上映日期 2020-12-18(美国收集)
◎IMDb评分 6.9/10 (54226人评价)
◎IMDb链接 https://www.imdb.com/title/tt10514222/
◎豆瓣评分 6.5/10 (4714人评价)
◎豆瓣链接 https://movie.douban.com/subject/34439631/
◎片  长 94分钟
◎导  演 乔治·乌尔夫 George C. Wolfe
◎编  剧 鲁本·桑地亚哥-哈德森 Ruben Santiago-Hudson
       奥古斯特·威尔逊 August Wilson
◎演  员 维奥拉·戴维斯 Viola Davis
       查德维克·博斯曼 Chadwick Boseman
       科尔曼·多明戈 Colman Domingo
       格林·特鲁曼 Glynn Turman
       迈克尔·波茨 Michael Potts
       杰里米萨默斯 Jeremy Shamos
       约翰尼·科瓦内 Jonny Coyne
       泰勒·佩姬 Taylour Paige
       杜山·布朗 Dusan Brown
       约书亚·哈尔托 Joshua Harto
       奎因·范安特卫普 Quinn VanAntwerp
       克洛伊·戴维斯 Chloe Davis
       梅特·纳塔利奥 Mayte Natalio
       约翰娜·埃尔米纳·莫伊兹 Johanna Elmina Moise
       Onyxx Noel Onyxx Noel
       詹姆斯·西耶斯基 James Ciesielski
       威廉·卡尼亚 William Kania
       托比亚斯 A·施利斯勒 Tobias A. Schliessler
       马克·瑞克 Mark Ricker
       安·罗斯 Ann Roth
       塞尔吉奥·洛佩斯-里维拉 Sergio Lopez-Rivera
◎简  介
  20世纪20 年月,在芝加哥的一场午后录音中,乐队成员们正在期待开辟性的表演者、传奇的“蓝调之母”玛·雷尼(奥斯卡金像奖得主维奥拉·戴维斯饰),其间氛围变得愈发严重。录音停止到前期时,无畏又脾性火爆的玛和其白人掮客人及建造人就她的音乐控制权展开了一场意志的较劲。大志勃勃的小号手列维(查德维克·博斯曼饰)很是欣赏玛的女朋友,并决心在音乐行业中占有一席之地,当乐队在工作室幽闭的排演室中期待时,他促使乐手们爆出揭穿真相的故事,这将永久改变他们的生活。                                       
                                    《蓝调天后》按照两次普利策奖得主奥古斯特·威尔逊的戏剧改编而成,称道了蓝调的变化气力以及那些拒绝让社会偏见左右自己代价的艺术家。该电影由乔治·乌尔夫执导,鲁本·桑地亚哥-哈德森停止剧本改编,凭仗《藩篱》荣获奥斯卡奖提名的丹泽尔·华盛顿和托德·布莱克担任制片人。科尔曼·多明戈、格林·特鲁曼、迈克尔·波茨、泰勒·...
  1. Video
  2. ID                                       : 1
  3. Format                                   : HEVC
  4. Format/Info                              : High Efficiency Video Coding
  5. Format profile                           : Main 10@L5@Main
  6. Codec ID                                 : V_MPEGH/ISO/HEVC
  7. Duration                                 : 1 h 34 min
  8. Bit rate                                 : 11.4 Mb/s
  9. Width                                    : 3 840 pixels
  10. Height                                   : 2 160 pixels
  11. Display aspect ratio                     : 16:9
  12. Frame rate mode                          : Constant
  13. Frame rate                               : 24.000 FPS
  14. Color space                              : YUV
  15. Chroma subsampling                       : 4:2:0
  16. Bit depth                                : 10 bits
  17. Bits/(Pixel*Frame)                       : 0.057
  18. Stream size                              : 7.49 GiB (94%)
  19. Language                                 : English
  20. Default                                  : Yes
  21. Forced                                   : No
  22. Color range                              : Limited
  23. Color primaries                          : BT.709
  24. Transfer characteristics                 : BT.709
  25. Matrix coefficients                      : BT.709
  26. Audio
  27. ID                                       : 2
  28. Format                                   : E-AC-3 JOC
  29. Format/Info                              : Enhanced AC-3 with Joint Object Coding
  30. Commercial name                          : Dolby Digital Plus with Dolby Atmos
  31. Codec ID                                 : A_EAC3
  32. Duration                                 : 1 h 34 min
  33. Bit rate mode                            : Constant
  34. Bit rate                                 : 768 kb/s
  35. Channel(s)                               : 6 channels
  36. Channel layout                           : L R C LFE Ls Rs
  37. Sampling rate                            : 48.0 kHz
  38. Frame rate                               : 31.250 FPS (1536 SPF)
  39. Compression mode                         : Lossy
  40. Stream size                              : 517 MiB (6%)
  41. Language                                 : English
  42. Service kind                             : Complete Main
  43. Default                                  : Yes
  44. Forced                                   : No
  45. Complexity index                         : 16
  46. Number of dynamic objects                : 15
  47. Bed channel count                        : 1 channel
  48. Bed channel configuration                : LFE
  49. Text #1
  50. ID                                       : 3
  51. Format                                   : UTF-8
  52. Codec ID                                 : S_TEXT/UTF8
  53. Codec ID/Info                            : UTF-8 Plain Text
  54. Duration                                 : 1 h 22 min
  55. Bit rate                                 : 94 b/s
  56. Frame rate                               : 0.277 FPS
  57. Count of elements                        : 1368
  58. Stream size                              : 57.2 KiB (0%)
  59. Language                                 : English
  60. Default                                  : No
  61. Forced                                   : No
  62. Text #2
  63. ID                                       : 4
  64. Format                                   : UTF-8
  65. Codec ID                                 : S_TEXT/UTF8
  66. Codec ID/Info                            : UTF-8 Plain Text
  67. Duration                                 : 1 h 27 min
  68. Bit rate                                 : 101 b/s
  69. Frame rate                               : 0.306 FPS
  70. Count of elements                        : 1606
  71. Stream size                              : 64.9 KiB (0%)
  72. Title                                    : SDH
  73. Language                                 : English
  74. Default                                  : No
  75. Forced                                   : No
  76. Text #3
  77. ID                                       : 5
  78. Format                                   : UTF-8
  79. Codec ID                                 : S_TEXT/UTF8
  80. Codec ID/Info                            : UTF-8 Plain Text
  81. Duration                                 : 1 h 33 min
  82. Bit rate                                 : 112 b/s
  83. Frame rate                               : 0.232 FPS
  84. Count of elements                        : 1293
  85. Stream size                              : 76.5 KiB (0%)
  86. Language                                 : Arabic
  87. Default                                  : No
  88. Forced                                   : No
  89. Text #4
  90. ID                                       : 6
  91. Format                                   : UTF-8
  92. Codec ID                                 : S_TEXT/UTF8
  93. Codec ID/Info                            : UTF-8 Plain Text
  94. Duration                                 : 1 h 33 min
  95. Bit rate                                 : 64 b/s
  96. Frame rate                               : 0.223 FPS
  97. Count of elements                        : 1245
  98. Stream size                              : 44.1 KiB (0%)
  99. Language                                 : Czech
  100. Default                                  : No
  101. Forced                                   : No
  102. Text #5
  103. ID                                       : 7
  104. Format                                   : UTF-8
  105. Codec ID                                 : S_TEXT/UTF8
  106. Codec ID/Info                            : UTF-8 Plain Text
  107. Duration                                 : 1 h 33 min
  108. Bit rate                                 : 63 b/s
  109. Frame rate                               : 0.206 FPS
  110. Count of elements                        : 1151
  111. Stream size                              : 43.5 KiB (0%)
  112. Language                                 : Danish
  113. Default                                  : No
  114. Forced                                   : No
  115. Text #6
  116. ID                                       : 8
  117. Format                                   : UTF-8
  118. Codec ID                                 : S_TEXT/UTF8
  119. Codec ID/Info                            : UTF-8 Plain Text
  120. Duration                                 : 1 h 33 min
  121. Bit rate                                 : 67 b/s
  122. Frame rate                               : 0.212 FPS
  123. Count of elements                        : 1184
  124. Stream size                              : 45.8 KiB (0%)
  125. Language                                 : German
  126. Default                                  : No
  127. Forced                                   : No
  128. Text #7
  129. ID                                       : 9
  130. Format                                   : UTF-8
  131. Codec ID                                 : S_TEXT/UTF8
  132. Codec ID/Info                            : UTF-8 Plain Text
  133. Duration                                 : 1 h 33 min
  134. Bit rate                                 : 114 b/s
  135. Frame rate                               : 0.221 FPS
  136. Count of elements                        : 1235
  137. Stream size                              : 77.8 KiB (0%)
  138. Language                                 : Greek
  139. Default                                  : No
  140. Forced                                   : No
  141. Text #8
  142. ID                                       : 10
  143. Format                                   : UTF-8
  144. Codec ID                                 : S_TEXT/UTF8
  145. Codec ID/Info                            : UTF-8 Plain Text
  146. Duration                                 : 1 h 33 min
  147. Bit rate                                 : 66 b/s
  148. Frame rate                               : 0.221 FPS
  149. Count of elements                        : 1232
  150. Stream size                              : 45.6 KiB (0%)
  151. Title                                    : Latin American
  152. Language                                 : Spanish (Latin America)
  153. Default                                  : No
  154. Forced                                   : No
  155. Text #9
  156. ID                                       : 11
  157. Format                                   : UTF-8
  158. Codec ID                                 : S_TEXT/UTF8
  159. Codec ID/Info                            : UTF-8 Plain Text
  160. Duration                                 : 1 h 33 min
  161. Bit rate                                 : 68 b/s
  162. Frame rate                               : 0.221 FPS
  163. Count of elements                        : 1236
  164. Stream size                              : 46.7 KiB (0%)
  165. Language                                 : Spanish (ES)
  166. Default                                  : No
  167. Forced                                   : No
  168. Text #10
  169. ID                                       : 12
  170. Format                                   : UTF-8
  171. Codec ID                                 : S_TEXT/UTF8
  172. Codec ID/Info                            : UTF-8 Plain Text
  173. Duration                                 : 1 h 33 min
  174. Bit rate                                 : 58 b/s
  175. Frame rate                               : 0.211 FPS
  176. Count of elements                        : 1180
  177. Stream size                              : 40.2 KiB (0%)
  178. Language                                 : Finnish
  179. Default                                  : No
  180. Forced                                   : No
  181. Text #11
  182. ID                                       : 13
  183. Format                                   : UTF-8
  184. Codec ID                                 : S_TEXT/UTF8
  185. Codec ID/Info                            : UTF-8 Plain Text
  186. Duration                                 : 1 h 33 min
  187. Bit rate                                 : 64 b/s
  188. Frame rate                               : 0.222 FPS
  189. Count of elements                        : 1239
  190. Stream size                              : 43.8 KiB (0%)
  191. Language                                 : French
  192. Default                                  : No
  193. Forced                                   : No
  194. Text #12
  195. ID                                       : 14
  196. Format                                   : UTF-8
  197. Codec ID                                 : S_TEXT/UTF8
  198. Codec ID/Info                            : UTF-8 Plain Text
  199. Duration                                 : 1 h 33 min
  200. Bit rate                                 : 112 b/s
  201. Frame rate                               : 0.226 FPS
  202. Count of elements                        : 1261
  203. Stream size                              : 76.7 KiB (0%)
  204. Language                                 : Hebrew
  205. Default                                  : No
  206. Forced                                   : No
  207. Text #13
  208. ID                                       : 15
  209. Format                                   : UTF-8
  210. Codec ID                                 : S_TEXT/UTF8
  211. Codec ID/Info                            : UTF-8 Plain Text
  212. Duration                                 : 1 h 33 min
  213. Bit rate                                 : 60 b/s
  214. Frame rate                               : 0.217 FPS
  215. Count of elements                        : 1212
  216. Stream size                              : 41.0 KiB (0%)
  217. Language                                 : Croatian
  218. Default                                  : No
  219. Forced                                   : No
  220. Text #14
  221. ID                                       : 16
  222. Format                                   : UTF-8
  223. Codec ID                                 : S_TEXT/UTF8
  224. Codec ID/Info                            : UTF-8 Plain Text
  225. Duration                                 : 1 h 33 min
  226. Bit rate                                 : 66 b/s
  227. Frame rate                               : 0.226 FPS
  228. Count of elements                        : 1261
  229. Stream size                              : 45.3 KiB (0%)
  230. Language                                 : Hungarian
  231. Default                                  : No
  232. Forced                                   : No
  233. Text #15
  234. ID                                       : 17
  235. Format                                   : UTF-8
  236. Codec ID                                 : S_TEXT/UTF8
  237. Codec ID/Info                            : UTF-8 Plain Text
  238. Duration                                 : 1 h 33 min
  239. Bit rate                                 : 68 b/s
  240. Frame rate                               : 0.231 FPS
  241. Count of elements                        : 1288
  242. Stream size                              : 46.7 KiB (0%)
  243. Language                                 : Indonesian
  244. Default                                  : No
  245. Forced                                   : No
  246. Text #16
  247. ID                                       : 18
  248. Format                                   : UTF-8
  249. Codec ID                                 : S_TEXT/UTF8
  250. Codec ID/Info                            : UTF-8 Plain Text
  251. Duration                                 : 1 h 33 min
  252. Bit rate                                 : 65 b/s
  253. Frame rate                               : 0.231 FPS
  254. Count of elements                        : 1288
  255. Stream size                              : 44.5 KiB (0%)
  256. Language                                 : Italian
  257. Default                                  : No
  258. Forced                                   : No
  259. Text #17
  260. ID                                       : 19
  261. Format                                   : UTF-8
  262. Codec ID                                 : S_TEXT/UTF8
  263. Codec ID/Info                            : UTF-8 Plain Text
  264. Duration                                 : 1 h 33 min
  265. Bit rate                                 : 61 b/s
  266. Frame rate                               : 0.195 FPS
  267. Count of elements                        : 1088
  268. Stream size                              : 41.9 KiB (0%)
  269. Language                                 : Japanese
  270. Default                                  : No
  271. Forced                                   : No
  272. Text #18
  273. ID                                       : 20
  274. Format                                   : UTF-8
  275. Codec ID                                 : S_TEXT/UTF8
  276. Codec ID/Info                            : UTF-8 Plain Text
  277. Duration                                 : 1 h 33 min
  278. Bit rate                                 : 88 b/s
  279. Frame rate                               : 0.233 FPS
  280. Count of elements                        : 1298
  281. Stream size                              : 60.3 KiB (0%)
  282. Language                                 : Korean
  283. Default                                  : No
  284. Forced                                   : No
  285. Text #19
  286. ID                                       : 21
  287. Format                                   : UTF-8
  288. Codec ID                                 : S_TEXT/UTF8
  289. Codec ID/Info                            : UTF-8 Plain Text
  290. Duration                                 : 1 h 33 min
  291. Bit rate                                 : 65 b/s
  292. Frame rate                               : 0.230 FPS
  293. Count of elements                        : 1283
  294. Stream size                              : 44.4 KiB (0%)
  295. Language                                 : Malay
  296. Default                                  : No
  297. Forced                                   : No
  298. Text #20
  299. ID                                       : 22
  300. Format                                   : UTF-8
  301. Codec ID                                 : S_TEXT/UTF8
  302. Codec ID/Info                            : UTF-8 Plain Text
  303. Duration                                 : 1 h 33 min
  304. Bit rate                                 : 63 b/s
  305. Frame rate                               : 0.208 FPS
  306. Count of elements                        : 1161
  307. Stream size                              : 43.6 KiB (0%)
  308. Language                                 : Norwegian Bokmal
  309. Default                                  : No
  310. Forced                                   : No
  311. Text #21
  312. ID                                       : 23
  313. Format                                   : UTF-8
  314. Codec ID                                 : S_TEXT/UTF8
  315. Codec ID/Info                            : UTF-8 Plain Text
  316. Duration                                 : 1 h 33 min
  317. Bit rate                                 : 63 b/s
  318. Frame rate                               : 0.196 FPS
  319. Count of elements                        : 1092
  320. Stream size                              : 43.4 KiB (0%)
  321. Language                                 : Dutch
  322. Default                                  : No
  323. Forced                                   : No
  324. Text #22
  325. ID                                       : 24
  326. Format                                   : UTF-8
  327. Codec ID                                 : S_TEXT/UTF8
  328. Codec ID/Info                            : UTF-8 Plain Text
  329. Duration                                 : 1 h 33 min
  330. Bit rate                                 : 63 b/s
  331. Frame rate                               : 0.233 FPS
  332. Count of elements                        : 1302
  333. Stream size                              : 43.4 KiB (0%)
  334. Language                                 : Polish
  335. Default                                  : No
  336. Forced                                   : No
  337. Text #23
  338. ID                                       : 25
  339. Format                                   : UTF-8
  340. Codec ID                                 : S_TEXT/UTF8
  341. Codec ID/Info                            : UTF-8 Plain Text
  342. Duration                                 : 1 h 33 min
  343. Bit rate                                 : 66 b/s
  344. Frame rate                               : 0.232 FPS
  345. Count of elements                        : 1294
  346. Stream size                              : 45.5 KiB (0%)
  347. Title                                    : Brazilian
  348. Language                                 : Portuguese (BR)
  349. Default                                  : No
  350. Forced                                   : No
  351. Text #24
  352. ID                                       : 26
  353. Format                                   : UTF-8
  354. Codec ID                                 : S_TEXT/UTF8
  355. Codec ID/Info                            : UTF-8 Plain Text
  356. Duration                                 : 1 h 33 min
  357. Bit rate                                 : 63 b/s
  358. Frame rate                               : 0.224 FPS
  359. Count of elements                        : 1251
  360. Stream size                              : 43.4 KiB (0%)
  361. Language                                 : Portuguese (PT)
  362. Default                                  : No
  363. Forced                                   : No
  364. Text #25
  365. ID                                       : 27
  366. Format                                   : UTF-8
  367. Codec ID                                 : S_TEXT/UTF8
  368. Codec ID/Info                            : UTF-8 Plain Text
  369. Duration                                 : 1 h 33 min
  370. Bit rate                                 : 76 b/s
  371. Frame rate                               : 0.206 FPS
  372. Count of elements                        : 1149
  373. Stream size                              : 52.4 KiB (0%)
  374. Language                                 : Romanian
  375. Default                                  : No
  376. Forced                                   : No
  377. Text #26
  378. ID                                       : 28
  379. Format                                   : UTF-8
  380. Codec ID                                 : S_TEXT/UTF8
  381. Codec ID/Info                            : UTF-8 Plain Text
  382. Duration                                 : 1 h 33 min
  383. Bit rate                                 : 112 b/s
  384. Frame rate                               : 0.227 FPS
  385. Count of elements                        : 1266
  386. Stream size                              : 77.0 KiB (0%)
  387. Language                                 : Russian
  388. Default                                  : No
  389. Forced                                   : No
  390. Text #27
  391. ID                                       : 29
  392. Format                                   : UTF-8
  393. Codec ID                                 : S_TEXT/UTF8
  394. Codec ID/Info                            : UTF-8 Plain Text
  395. Duration                                 : 1 h 33 min
  396. Bit rate                                 : 66 b/s
  397. Frame rate                               : 0.197 FPS
  398. Count of elements                        : 1098
  399. Stream size                              : 45.4 KiB (0%)
  400. Language                                 : Swedish
  401. Default                                  : No
  402. Forced                                   : No
  403. Text #28
  404. ID                                       : 30
  405. Format                                   : UTF-8
  406. Codec ID                                 : S_TEXT/UTF8
  407. Codec ID/Info                            : UTF-8 Plain Text
  408. Duration                                 : 1 h 33 min
  409. Bit rate                                 : 178 b/s
  410. Frame rate                               : 0.232 FPS
  411. Count of elements                        : 1294
  412. Stream size                              : 122 KiB (0%)
  413. Language                                 : Thai
  414. Default                                  : No
  415. Forced                                   : No
  416. Text #29
  417. ID                                       : 31
  418. Format                                   : UTF-8
  419. Codec ID                                 : S_TEXT/UTF8
  420. Codec ID/Info                            : UTF-8 Plain Text
  421. Duration                                 : 1 h 33 min
  422. Bit rate                                 : 67 b/s
  423. Frame rate                               : 0.231 FPS
  424. Count of elements                        : 1290
  425. Stream size                              : 45.8 KiB (0%)
  426. Language                                 : Turkish
  427. Default                                  : No
  428. Forced                                   : No
  429. Text #30
  430. ID                                       : 32
  431. Format                                   : UTF-8
  432. Codec ID                                 : S_TEXT/UTF8
  433. Codec ID/Info                            : UTF-8 Plain Text
  434. Duration                                 : 1 h 33 min
  435. Bit rate                                 : 112 b/s
  436. Frame rate                               : 0.230 FPS
  437. Count of elements                        : 1285
  438. Stream size                              : 76.9 KiB (0%)
  439. Language                                 : Ukrainian
  440. Default                                  : No
  441. Forced                                   : No
  442. Text #31
  443. ID                                       : 33
  444. Format                                   : UTF-8
  445. Codec ID                                 : S_TEXT/UTF8
  446. Codec ID/Info                            : UTF-8 Plain Text
  447. Duration                                 : 1 h 33 min
  448. Bit rate                                 : 94 b/s
  449. Frame rate                               : 0.231 FPS
  450. Count of elements                        : 1290
  451. Stream size                              : 64.4 KiB (0%)
  452. Language                                 : Vietnamese
  453. Default                                  : No
  454. Forced                                   : No
  455. Text #32
  456. ID                                       : 34
  457. Format                                   : UTF-8
  458. Codec ID                                 : S_TEXT/UTF8
  459. Codec ID/Info                            : UTF-8 Plain Text
  460. Duration                                 : 1 h 33 min
  461. Bit rate                                 : 77 b/s
  462. Frame rate                               : 0.232 FPS
  463. Count of elements                        : 1294
  464. Stream size                              : 53.0 KiB (0%)
  465. Title                                    : Simplified
  466. Language                                 : Chinese (Simplied)
  467. Default                                  : No
  468. Forced                                   : No
  469. Text #33
  470. ID                                       : 35
  471. Format                                   : UTF-8
  472. Codec ID                                 : S_TEXT/UTF8
  473. Codec ID/Info                            : UTF-8 Plain Text
  474. Duration                                 : 1 h 33 min
  475. Bit rate                                 : 72 b/s
  476. Frame rate                               : 0.255 FPS
  477. Count of elements                        : 1425
  478. Stream size                              : 49.5 KiB (0%)
  479. Title                                    : Traditional
  480. Language                                 : Chinese (Traditional)
  481. Default                                  : No
  482. Forced                                   : No
  483. Menu
  484. 01:28:17.000                             : en:End Credits
复制代码











回复

使用道具 举报

懒得打字嘛,点击右侧快捷回复 【右侧内容,后台自定义】
您需要登录后才可以回帖 登录 | 立即加入

本版积分规则

Copyright © 2024 Comsenz Inc. Powered by 蓝光电影网

本站内容由用户自主分享和转载自互联网,转载目的在于传递更多信息,并不代表本网赞同其观点和对其真实性负责。

如有侵权、违反国家法律政策行为,请联系我们,我们会第一时间及时清除和处理!

举报反馈邮箱:4k1080.com@gmail.com

快速回复 返回顶部 返回列表