找回密码

查看: 1703|回复: 0

[2160p-WEB] 以复仇为名[中文字幕].My.Name.Is.Vendetta.2022.ITALIAN.2160p.NF.WEB-DL.x265.10bit.HDR.DDP5.1-BOUNTYTOOBIGTOIGNORE 7.40GB

[复制链接]
蓝光币
1848
发表于 2023-1-2 14:57:32 | 显示全部楼层 |阅读模式


◎标  题 以复仇为名
◎译  名 My Name Is Vendetta
◎片  名 Il mio nome è vendetta
◎年  代 2022
◎产  地 意大利
◎类  别 剧情 / 惊悚 / 犯罪
◎语  言 意大利语
◎上映日期 2022-11-30(意大利收集)
◎IMDb评分 5.5/10 (3346人评价)
◎IMDb链接 https://www.imdb.com/title/tt15229674/
◎豆瓣评分 5.5/10 (496人评价)
◎豆瓣链接 https://movie.douban.com/subject/35594766/
◎片  长 90分钟
◎导  演 科西莫·高梅茲 Cosimo Gomez
◎编  剧 Sandrone Dazieri Sandrone Dazieri
       科西莫·高梅茲 Cosimo Gomez
       安德里亚·诺比勒 Andrea Nobile
◎演  员 亚历山德罗·加斯曼 Alessandro Gassmann
       雷莫·吉罗内 Remo Girone
       Sinja Dieks Sinja Dieks
       阿莱西奥·普拉蒂科 Alessio Praticò
       吉内维拉·弗兰切斯科尼 Ginevra Francesconi
◎简  介
  索菲亚是个恬静的少女,偷偷发了一张父亲的照片在网上,这个无意之举完全改变了父女俩的人生,索菲亚得知了前所未知的真相,发现父亲已经身为黑手党名誉会的黑暗过往。虽然心里冲突,索菲亚还是接管了家属传承下来的愤慨与暴力,辅佐父亲展开绝不包涵的复仇
  1. Video
  2. ID                                       : 1
  3. Format                                   : HEVC
  4. Format/Info                              : High Efficiency Video Coding
  5. Format profile                           : Main 10@L5@Main
  6. HDR format                               : Dolby Vision, Version 1.0, dvhe.08.06, BL+RPU, HDR10 compatible / SMPTE ST 2086, HDR10 compatible
  7. Codec ID                                 : V_MPEGH/ISO/HEVC
  8. Duration                                 : 1 h 30 min
  9. Bit rate                                 : 11.0 Mb/s
  10. Width                                    : 3 840 pixels
  11. Height                                   : 2 160 pixels
  12. Display aspect ratio                     : 16:9
  13. Frame rate mode                          : Constant
  14. Frame rate                               : 24.000 FPS
  15. Color space                              : YUV
  16. Chroma subsampling                       : 4:2:0 (Type 2)
  17. Bit depth                                : 10 bits
  18. Bits/(Pixel*Frame)                       : 0.055
  19. Stream size                              : 6.99 GiB (94%)
  20. Language                                 : Italian
  21. Default                                  : Yes
  22. Forced                                   : No
  23. Color range                              : Limited
  24. Color primaries                          : BT.2020
  25. Transfer characteristics                 : PQ
  26. Matrix coefficients                      : BT.2020 non-constant
  27. Mastering display color primaries        : Display P3
  28. Mastering display luminance              : min: 0.0001 cd/m2, max: 1000 cd/m2
  29. Maximum Content Light Level              : 1142 cd/m2
  30. Maximum Frame-Average Light Level        : 744 cd/m2
  31. Audio
  32. ID                                       : 2
  33. Format                                   : E-AC-3
  34. Format/Info                              : Enhanced AC-3
  35. Commercial name                          : Dolby Digital Plus
  36. Codec ID                                 : A_EAC3
  37. Duration                                 : 1 h 32 min
  38. Bit rate mode                            : Constant
  39. Bit rate                                 : 640 kb/s
  40. Channel(s)                               : 6 channels
  41. Channel layout                           : L R C LFE Ls Rs
  42. Sampling rate                            : 48.0 kHz
  43. Frame rate                               : 31.250 FPS (1536 SPF)
  44. Compression mode                         : Lossy
  45. Stream size                              : 422 MiB (6%)
  46. Language                                 : Italian
  47. Service kind                             : Complete Main
  48. Default                                  : Yes
  49. Forced                                   : No
  50. Text #1
  51. ID                                       : 3
  52. Format                                   : UTF-8
  53. Codec ID                                 : S_TEXT/UTF8
  54. Codec ID/Info                            : UTF-8 Plain Text
  55. Duration                                 : 1 h 29 min
  56. Bit rate                                 : 5 b/s
  57. Frame rate                               : 0.020 FPS
  58. Count of elements                        : 110
  59. Stream size                              : 3.71 KiB (0%)
  60. Title                                    : Forced
  61. Language                                 : Italian
  62. Default                                  : Yes
  63. Forced                                   : Yes
  64. Text #2
  65. ID                                       : 4
  66. Format                                   : UTF-8
  67. Codec ID                                 : S_TEXT/UTF8
  68. Codec ID/Info                            : UTF-8 Plain Text
  69. Duration                                 : 1 h 25 min
  70. Bit rate                                 : 34 b/s
  71. Frame rate                               : 0.147 FPS
  72. Count of elements                        : 753
  73. Stream size                              : 21.8 KiB (0%)
  74. Language                                 : Italian
  75. Default                                  : No
  76. Forced                                   : No
  77. Text #3
  78. ID                                       : 5
  79. Format                                   : UTF-8
  80. Codec ID                                 : S_TEXT/UTF8
  81. Codec ID/Info                            : UTF-8 Plain Text
  82. Duration                                 : 1 h 25 min
  83. Bit rate                                 : 46 b/s
  84. Frame rate                               : 0.201 FPS
  85. Count of elements                        : 1035
  86. Stream size                              : 29.2 KiB (0%)
  87. Title                                    : SDH
  88. Language                                 : Italian
  89. Default                                  : No
  90. Forced                                   : No
  91. Text #4
  92. ID                                       : 6
  93. Format                                   : UTF-8
  94. Codec ID                                 : S_TEXT/UTF8
  95. Codec ID/Info                            : UTF-8 Plain Text
  96. Duration                                 : 1 h 30 min
  97. Bit rate                                 : 49 b/s
  98. Frame rate                               : 0.146 FPS
  99. Count of elements                        : 787
  100. Stream size                              : 32.9 KiB (0%)
  101. Language                                 : Arabic
  102. Default                                  : No
  103. Forced                                   : No
  104. Text #5
  105. ID                                       : 7
  106. Format                                   : UTF-8
  107. Codec ID                                 : S_TEXT/UTF8
  108. Codec ID/Info                            : UTF-8 Plain Text
  109. Duration                                 : 1 h 29 min
  110. Bit rate                                 : 29 b/s
  111. Frame rate                               : 0.137 FPS
  112. Count of elements                        : 742
  113. Stream size                              : 19.3 KiB (0%)
  114. Language                                 : Catalan
  115. Default                                  : No
  116. Forced                                   : No
  117. Text #6
  118. ID                                       : 8
  119. Format                                   : UTF-8
  120. Codec ID                                 : S_TEXT/UTF8
  121. Codec ID/Info                            : UTF-8 Plain Text
  122. Duration                                 : 1 h 30 min
  123. Bit rate                                 : 30 b/s
  124. Frame rate                               : 0.145 FPS
  125. Count of elements                        : 785
  126. Stream size                              : 20.2 KiB (0%)
  127. Language                                 : Czech
  128. Default                                  : No
  129. Forced                                   : No
  130. Text #7
  131. ID                                       : 9
  132. Format                                   : UTF-8
  133. Codec ID                                 : S_TEXT/UTF8
  134. Codec ID/Info                            : UTF-8 Plain Text
  135. Duration                                 : 1 h 30 min
  136. Bit rate                                 : 30 b/s
  137. Frame rate                               : 0.145 FPS
  138. Count of elements                        : 783
  139. Stream size                              : 19.9 KiB (0%)
  140. Language                                 : Danish
  141. Default                                  : No
  142. Forced                                   : No
  143. Text #8
  144. ID                                       : 10
  145. Format                                   : UTF-8
  146. Codec ID                                 : S_TEXT/UTF8
  147. Codec ID/Info                            : UTF-8 Plain Text
  148. Duration                                 : 1 h 30 min
  149. Bit rate                                 : 33 b/s
  150. Frame rate                               : 0.144 FPS
  151. Count of elements                        : 780
  152. Stream size                              : 22.3 KiB (0%)
  153. Language                                 : German
  154. Default                                  : No
  155. Forced                                   : No
  156. Text #9
  157. ID                                       : 11
  158. Format                                   : UTF-8
  159. Codec ID                                 : S_TEXT/UTF8
  160. Codec ID/Info                            : UTF-8 Plain Text
  161. Duration                                 : 1 h 30 min
  162. Bit rate                                 : 54 b/s
  163. Frame rate                               : 0.145 FPS
  164. Count of elements                        : 786
  165. Stream size                              : 35.9 KiB (0%)
  166. Language                                 : Greek
  167. Default                                  : No
  168. Forced                                   : No
  169. Text #10
  170. ID                                       : 12
  171. Format                                   : UTF-8
  172. Codec ID                                 : S_TEXT/UTF8
  173. Codec ID/Info                            : UTF-8 Plain Text
  174. Duration                                 : 1 h 25 min
  175. Bit rate                                 : 37 b/s
  176. Frame rate                               : 0.158 FPS
  177. Count of elements                        : 809
  178. Stream size                              : 23.4 KiB (0%)
  179. Language                                 : English
  180. Default                                  : No
  181. Forced                                   : No
  182. Text #11
  183. ID                                       : 13
  184. Format                                   : UTF-8
  185. Codec ID                                 : S_TEXT/UTF8
  186. Codec ID/Info                            : UTF-8 Plain Text
  187. Duration                                 : 1 h 30 min
  188. Bit rate                                 : 31 b/s
  189. Frame rate                               : 0.142 FPS
  190. Count of elements                        : 767
  191. Stream size                              : 20.8 KiB (0%)
  192. Language                                 : English
  193. Default                                  : No
  194. Forced                                   : No
  195. Text #12
  196. ID                                       : 14
  197. Format                                   : UTF-8
  198. Codec ID                                 : S_TEXT/UTF8
  199. Codec ID/Info                            : UTF-8 Plain Text
  200. Duration                                 : 1 h 30 min
  201. Bit rate                                 : 59 b/s
  202. Frame rate                               : 0.279 FPS
  203. Count of elements                        : 1512
  204. Stream size                              : 39.0 KiB (0%)
  205. Title                                    : SDH
  206. Language                                 : English
  207. Default                                  : No
  208. Forced                                   : No
  209. Text #13
  210. ID                                       : 15
  211. Format                                   : UTF-8
  212. Codec ID                                 : S_TEXT/UTF8
  213. Codec ID/Info                            : UTF-8 Plain Text
  214. Duration                                 : 1 h 30 min
  215. Bit rate                                 : 32 b/s
  216. Frame rate                               : 0.145 FPS
  217. Count of elements                        : 782
  218. Stream size                              : 21.5 KiB (0%)
  219. Title                                    : Latin American
  220. Language                                 : Spanish (Latin America)
  221. Default                                  : No
  222. Forced                                   : No
  223. Text #14
  224. ID                                       : 16
  225. Format                                   : UTF-8
  226. Codec ID                                 : S_TEXT/UTF8
  227. Codec ID/Info                            : UTF-8 Plain Text
  228. Duration                                 : 1 h 29 min
  229. Bit rate                                 : 29 b/s
  230. Frame rate                               : 0.146 FPS
  231. Count of elements                        : 786
  232. Stream size                              : 19.5 KiB (0%)
  233. Language                                 : Spanish (ES)
  234. Default                                  : No
  235. Forced                                   : No
  236. Text #15
  237. ID                                       : 17
  238. Format                                   : UTF-8
  239. Codec ID                                 : S_TEXT/UTF8
  240. Codec ID/Info                            : UTF-8 Plain Text
  241. Duration                                 : 1 h 30 min
  242. Bit rate                                 : 29 b/s
  243. Frame rate                               : 0.145 FPS
  244. Count of elements                        : 784
  245. Stream size                              : 19.4 KiB (0%)
  246. Language                                 : Basque
  247. Default                                  : No
  248. Forced                                   : No
  249. Text #16
  250. ID                                       : 18
  251. Format                                   : UTF-8
  252. Codec ID                                 : S_TEXT/UTF8
  253. Codec ID/Info                            : UTF-8 Plain Text
  254. Duration                                 : 1 h 30 min
  255. Bit rate                                 : 31 b/s
  256. Frame rate                               : 0.145 FPS
  257. Count of elements                        : 785
  258. Stream size                              : 20.9 KiB (0%)
  259. Language                                 : Finnish
  260. Default                                  : No
  261. Forced                                   : No
  262. Text #17
  263. ID                                       : 19
  264. Format                                   : UTF-8
  265. Codec ID                                 : S_TEXT/UTF8
  266. Codec ID/Info                            : UTF-8 Plain Text
  267. Duration                                 : 1 h 30 min
  268. Bit rate                                 : 33 b/s
  269. Frame rate                               : 0.145 FPS
  270. Count of elements                        : 785
  271. Stream size                              : 21.9 KiB (0%)
  272. Language                                 : fil
  273. Default                                  : No
  274. Forced                                   : No
  275. Text #18
  276. ID                                       : 20
  277. Format                                   : UTF-8
  278. Codec ID                                 : S_TEXT/UTF8
  279. Codec ID/Info                            : UTF-8 Plain Text
  280. Duration                                 : 1 h 30 min
  281. Bit rate                                 : 34 b/s
  282. Frame rate                               : 0.145 FPS
  283. Count of elements                        : 783
  284. Stream size                              : 22.6 KiB (0%)
  285. Language                                 : French
  286. Default                                  : No
  287. Forced                                   : No
  288. Text #19
  289. ID                                       : 21
  290. Format                                   : UTF-8
  291. Codec ID                                 : S_TEXT/UTF8
  292. Codec ID/Info                            : UTF-8 Plain Text
  293. Duration                                 : 1 h 30 min
  294. Bit rate                                 : 28 b/s
  295. Frame rate                               : 0.140 FPS
  296. Count of elements                        : 759
  297. Stream size                              : 18.9 KiB (0%)
  298. Language                                 : Galician
  299. Default                                  : No
  300. Forced                                   : No
  301. Text #20
  302. ID                                       : 22
  303. Format                                   : UTF-8
  304. Codec ID                                 : S_TEXT/UTF8
  305. Codec ID/Info                            : UTF-8 Plain Text
  306. Duration                                 : 1 h 30 min
  307. Bit rate                                 : 45 b/s
  308. Frame rate                               : 0.146 FPS
  309. Count of elements                        : 787
  310. Stream size                              : 30.1 KiB (0%)
  311. Language                                 : Hebrew
  312. Default                                  : No
  313. Forced                                   : No
  314. Text #21
  315. ID                                       : 23
  316. Format                                   : UTF-8
  317. Codec ID                                 : S_TEXT/UTF8
  318. Codec ID/Info                            : UTF-8 Plain Text
  319. Duration                                 : 1 h 30 min
  320. Bit rate                                 : 29 b/s
  321. Frame rate                               : 0.145 FPS
  322. Count of elements                        : 785
  323. Stream size                              : 19.2 KiB (0%)
  324. Language                                 : Croatian
  325. Default                                  : No
  326. Forced                                   : No
  327. Text #22
  328. ID                                       : 24
  329. Format                                   : UTF-8
  330. Codec ID                                 : S_TEXT/UTF8
  331. Codec ID/Info                            : UTF-8 Plain Text
  332. Duration                                 : 1 h 30 min
  333. Bit rate                                 : 30 b/s
  334. Frame rate                               : 0.146 FPS
  335. Count of elements                        : 787
  336. Stream size                              : 20.0 KiB (0%)
  337. Language                                 : Hungarian
  338. Default                                  : No
  339. Forced                                   : No
  340. Text #23
  341. ID                                       : 25
  342. Format                                   : UTF-8
  343. Codec ID                                 : S_TEXT/UTF8
  344. Codec ID/Info                            : UTF-8 Plain Text
  345. Duration                                 : 1 h 30 min
  346. Bit rate                                 : 32 b/s
  347. Frame rate                               : 0.146 FPS
  348. Count of elements                        : 789
  349. Stream size                              : 21.6 KiB (0%)
  350. Language                                 : Indonesian
  351. Default                                  : No
  352. Forced                                   : No
  353. Text #24
  354. ID                                       : 26
  355. Format                                   : UTF-8
  356. Codec ID                                 : S_TEXT/UTF8
  357. Codec ID/Info                            : UTF-8 Plain Text
  358. Duration                                 : 1 h 30 min
  359. Bit rate                                 : 31 b/s
  360. Frame rate                               : 0.135 FPS
  361. Count of elements                        : 730
  362. Stream size                              : 20.7 KiB (0%)
  363. Language                                 : Japanese
  364. Default                                  : No
  365. Forced                                   : No
  366. Text #25
  367. ID                                       : 27
  368. Format                                   : UTF-8
  369. Codec ID                                 : S_TEXT/UTF8
  370. Codec ID/Info                            : UTF-8 Plain Text
  371. Duration                                 : 1 h 30 min
  372. Bit rate                                 : 38 b/s
  373. Frame rate                               : 0.145 FPS
  374. Count of elements                        : 785
  375. Stream size                              : 25.6 KiB (0%)
  376. Language                                 : Korean
  377. Default                                  : No
  378. Forced                                   : No
  379. Text #26
  380. ID                                       : 28
  381. Format                                   : UTF-8
  382. Codec ID                                 : S_TEXT/UTF8
  383. Codec ID/Info                            : UTF-8 Plain Text
  384. Duration                                 : 1 h 30 min
  385. Bit rate                                 : 33 b/s
  386. Frame rate                               : 0.146 FPS
  387. Count of elements                        : 788
  388. Stream size                              : 21.9 KiB (0%)
  389. Language                                 : Malay
  390. Default                                  : No
  391. Forced                                   : No
  392. Text #27
  393. ID                                       : 29
  394. Format                                   : UTF-8
  395. Codec ID                                 : S_TEXT/UTF8
  396. Codec ID/Info                            : UTF-8 Plain Text
  397. Duration                                 : 1 h 30 min
  398. Bit rate                                 : 31 b/s
  399. Frame rate                               : 0.145 FPS
  400. Count of elements                        : 783
  401. Stream size                              : 20.7 KiB (0%)
  402. Language                                 : Norwegian Bokmal
  403. Default                                  : No
  404. Forced                                   : No
  405. Text #28
  406. ID                                       : 30
  407. Format                                   : UTF-8
  408. Codec ID                                 : S_TEXT/UTF8
  409. Codec ID/Info                            : UTF-8 Plain Text
  410. Duration                                 : 1 h 30 min
  411. Bit rate                                 : 29 b/s
  412. Frame rate                               : 0.146 FPS
  413. Count of elements                        : 787
  414. Stream size                              : 19.6 KiB (0%)
  415. Language                                 : Dutch
  416. Default                                  : No
  417. Forced                                   : No
  418. Text #29
  419. ID                                       : 31
  420. Format                                   : UTF-8
  421. Codec ID                                 : S_TEXT/UTF8
  422. Codec ID/Info                            : UTF-8 Plain Text
  423. Duration                                 : 1 h 30 min
  424. Bit rate                                 : 29 b/s
  425. Frame rate                               : 0.145 FPS
  426. Count of elements                        : 786
  427. Stream size                              : 19.2 KiB (0%)
  428. Language                                 : Polish
  429. Default                                  : No
  430. Forced                                   : No
  431. Text #30
  432. ID                                       : 32
  433. Format                                   : UTF-8
  434. Codec ID                                 : S_TEXT/UTF8
  435. Codec ID/Info                            : UTF-8 Plain Text
  436. Duration                                 : 1 h 30 min
  437. Bit rate                                 : 30 b/s
  438. Frame rate                               : 0.144 FPS
  439. Count of elements                        : 777
  440. Stream size                              : 20.1 KiB (0%)
  441. Title                                    : Brazilian
  442. Language                                 : Portuguese (BR)
  443. Default                                  : No
  444. Forced                                   : No
  445. Text #31
  446. ID                                       : 33
  447. Format                                   : UTF-8
  448. Codec ID                                 : S_TEXT/UTF8
  449. Codec ID/Info                            : UTF-8 Plain Text
  450. Duration                                 : 1 h 30 min
  451. Bit rate                                 : 31 b/s
  452. Frame rate                               : 0.144 FPS
  453. Count of elements                        : 780
  454. Stream size                              : 20.8 KiB (0%)
  455. Language                                 : Portuguese (PT)
  456. Default                                  : No
  457. Forced                                   : No
  458. Text #32
  459. ID                                       : 34
  460. Format                                   : UTF-8
  461. Codec ID                                 : S_TEXT/UTF8
  462. Codec ID/Info                            : UTF-8 Plain Text
  463. Duration                                 : 1 h 30 min
  464. Bit rate                                 : 34 b/s
  465. Frame rate                               : 0.145 FPS
  466. Count of elements                        : 783
  467. Stream size                              : 23.1 KiB (0%)
  468. Language                                 : Romanian
  469. Default                                  : No
  470. Forced                                   : No
  471. Text #33
  472. ID                                       : 35
  473. Format                                   : UTF-8
  474. Codec ID                                 : S_TEXT/UTF8
  475. Codec ID/Info                            : UTF-8 Plain Text
  476. Duration                                 : 1 h 30 min
  477. Bit rate                                 : 49 b/s
  478. Frame rate                               : 0.146 FPS
  479. Count of elements                        : 787
  480. Stream size                              : 32.7 KiB (0%)
  481. Language                                 : Russian
  482. Default                                  : No
  483. Forced                                   : No
  484. Text #34
  485. ID                                       : 36
  486. Format                                   : UTF-8
  487. Codec ID                                 : S_TEXT/UTF8
  488. Codec ID/Info                            : UTF-8 Plain Text
  489. Duration                                 : 1 h 30 min
  490. Bit rate                                 : 31 b/s
  491. Frame rate                               : 0.145 FPS
  492. Count of elements                        : 784
  493. Stream size                              : 21.1 KiB (0%)
  494. Language                                 : Swedish
  495. Default                                  : No
  496. Forced                                   : No
  497. Text #35
  498. ID                                       : 37
  499. Format                                   : UTF-8
  500. Codec ID                                 : S_TEXT/UTF8
  501. Codec ID/Info                            : UTF-8 Plain Text
  502. Duration                                 : 1 h 30 min
  503. Bit rate                                 : 78 b/s
  504. Frame rate                               : 0.146 FPS
  505. Count of elements                        : 787
  506. Stream size                              : 52.0 KiB (0%)
  507. Language                                 : Thai
  508. Default                                  : No
  509. Forced                                   : No
  510. Text #36
  511. ID                                       : 38
  512. Format                                   : UTF-8
  513. Codec ID                                 : S_TEXT/UTF8
  514. Codec ID/Info                            : UTF-8 Plain Text
  515. Duration                                 : 1 h 30 min
  516. Bit rate                                 : 31 b/s
  517. Frame rate                               : 0.145 FPS
  518. Count of elements                        : 785
  519. Stream size                              : 21.0 KiB (0%)
  520. Language                                 : Turkish
  521. Default                                  : No
  522. Forced                                   : No
  523. Text #37
  524. ID                                       : 39
  525. Format                                   : UTF-8
  526. Codec ID                                 : S_TEXT/UTF8
  527. Codec ID/Info                            : UTF-8 Plain Text
  528. Duration                                 : 1 h 30 min
  529. Bit rate                                 : 44 b/s
  530. Frame rate                               : 0.146 FPS
  531. Count of elements                        : 788
  532. Stream size                              : 29.5 KiB (0%)
  533. Language                                 : Ukrainian
  534. Default                                  : No
  535. Forced                                   : No
  536. Text #38
  537. ID                                       : 40
  538. Format                                   : UTF-8
  539. Codec ID                                 : S_TEXT/UTF8
  540. Codec ID/Info                            : UTF-8 Plain Text
  541. Duration                                 : 1 h 30 min
  542. Bit rate                                 : 45 b/s
  543. Frame rate                               : 0.145 FPS
  544. Count of elements                        : 786
  545. Stream size                              : 29.8 KiB (0%)
  546. Language                                 : Vietnamese
  547. Default                                  : No
  548. Forced                                   : No
  549. Text #39
  550. ID                                       : 41
  551. Format                                   : UTF-8
  552. Codec ID                                 : S_TEXT/UTF8
  553. Codec ID/Info                            : UTF-8 Plain Text
  554. Duration                                 : 1 h 30 min
  555. Bit rate                                 : 32 b/s
  556. Frame rate                               : 0.146 FPS
  557. Count of elements                        : 787
  558. Stream size                              : 21.3 KiB (0%)
  559. Title                                    : Simplified
  560. Language                                 : Chinese (Simplied)
  561. Default                                  : No
  562. Forced                                   : No
  563. Text #40
  564. ID                                       : 42
  565. Format                                   : UTF-8
  566. Codec ID                                 : S_TEXT/UTF8
  567. Codec ID/Info                            : UTF-8 Plain Text
  568. Duration                                 : 1 h 30 min
  569. Bit rate                                 : 32 b/s
  570. Frame rate                               : 0.146 FPS
  571. Count of elements                        : 792
  572. Stream size                              : 21.7 KiB (0%)
  573. Title                                    : Traditional
  574. Language                                 : Chinese (Traditional)
  575. Default                                  : No
  576. Forced                                   : No
  577. Menu
  578. 01:26:22.000                             : en:End Credits
复制代码











以复仇为名[中笔墨幕].My.Name.Is.Vendetta.2022.ITALIAN.2160p.NF.WEB-DL.x265.10bit.HDR.DDP5.1-BOUNTYTOOBIGTOIGNORE 7.40GB

My.Name.Is.Vendetta.2022.ITALIAN.2160p.NF.WEB-DL.x265.10bit.HDR.DDP5.1-BOUNTYTOO.torrent

19.2 KB, 下载次数: 15, 下载积分: 蓝光币 -2

回复

使用道具 举报

懒得打字嘛,点击右侧快捷回复 【右侧内容,后台自定义】
您需要登录后才可以回帖 登录 | 立即加入

本版积分规则

Copyright © 2024 Comsenz Inc. Powered by 蓝光电影网

本站内容由用户自主分享和转载自互联网,转载目的在于传递更多信息,并不代表本网赞同其观点和对其真实性负责。

如有侵权、违反国家法律政策行为,请联系我们,我们会第一时间及时清除和处理!

举报反馈邮箱:4k1080.com@gmail.com

快速回复 返回顶部 返回列表