找回密码

查看: 1496|回复: 0

[2160p-WEB] 首尔大作战[中文字幕].Seoul.Vibe.2022.KOREAN.2160p.NF.WEB-DL.DDP5.1.Atmos.DV.MP4.x265-DVSUX 16.43GB

[复制链接]
蓝光币
1856
发表于 2023-1-2 14:57:33 | 显示全部楼层 |阅读模式


◎标  题 首尔高文战
◎译  名 极速首尔(台) / 缓慢首尔 / Seoul Vibe
◎片  名 서울대작전
◎年  代 2022
◎产  地 韩国
◎类  别 剧情 / 笑剧 / 行动 / 犯罪
◎语  言 韩语
◎上映日期 2022-08-26(韩国收集)
◎IMDb评分 5.5/10 (1599人评价)
◎IMDb链接 https://www.imdb.com/title/tt13611770/
◎豆瓣评分 5.2/10 (7695人评价)
◎豆瓣链接 https://movie.douban.com/subject/35280912/
◎片  长 139分钟
◎导  演 文贤盛 Hyeon-seong Moon
◎演  员 刘亚仁 Ah-in Yoo
       高庚杓 Kyung-pyo Go
       朴柱炫 Joo-Hyun Park
       文素丽 So-ri Moon
       李奎炯 Kyu-hyung Lee
       金成均 Sung-Kyun Kim
       郑雄仁 Woong-in Jeong
       邕圣祐 Seong-wu Ong
       宋旻浩 Song Min Ho
       金彩恩 Chae-eun Kim
◎简  介
  增加演员吴政世、李世荣。
  1. Video
  2. ID                                       : 1
  3. Format                                   : HEVC
  4. Format/Info                              : High Efficiency Video Coding
  5. Format profile                           : Main 10@L5@Main
  6. HDR format                               : Dolby Vision, Version 1.0, dvhe.05.06, BL+RPU
  7. Codec ID                                 : dvhe
  8. Codec ID/Info                            : High Efficiency Video Coding with Dolby Vision
  9. Duration                                 : 2 h 20 min
  10. Bit rate                                 : 16.0 Mb/s
  11. Width                                    : 3 840 pixels
  12. Height                                   : 2 160 pixels
  13. Display aspect ratio                     : 16:9
  14. Frame rate mode                          : Constant
  15. Frame rate                               : 23.976 (24000/1001) FPS
  16. Color space                              : YUV
  17. Chroma subsampling                       : 4:2:0
  18. Bit depth                                : 10 bits
  19. Bits/(Pixel*Frame)                       : 0.080
  20. Stream size                              : 15.7 GiB (95%)
  21. Default                                  : Yes
  22. Alternate group                          : 1
  23. Encoded date                             : UTC 2023-01-01 17:33:57
  24. Tagged date                              : UTC 2023-01-01 17:39:15
  25. Color range                              : Full
  26. Codec configuration box                  : hvcC+dvcC
  27. Audio
  28. ID                                       : 2
  29. Format                                   : E-AC-3 JOC
  30. Format/Info                              : Enhanced AC-3 with Joint Object Coding
  31. Commercial name                          : Dolby Digital Plus with Dolby Atmos
  32. Codec ID                                 : ec-3
  33. Duration                                 : 2 h 20 min
  34. Bit rate mode                            : Constant
  35. Bit rate                                 : 768 kb/s
  36. Maximum bit rate                         : 811 kb/s
  37. Channel(s)                               : 6 channels
  38. Channel layout                           : L R C LFE Ls Rs
  39. Sampling rate                            : 48.0 kHz
  40. Frame rate                               : 31.250 FPS (1536 SPF)
  41. Compression mode                         : Lossy
  42. Stream size                              : 770 MiB (5%)
  43. Title                                    : English
  44. Language                                 : English
  45. Service kind                             : Complete Main
  46. Default                                  : Yes
  47. Alternate group                          : 1
  48. Tagged date                              : UTC 2023-01-01 17:39:15
  49. Complexity index                         : Not present / 16
  50. Number of dynamic objects                : 15
  51. Bed channel count                        : 1 channel
  52. Bed channel configuration                : LFE
  53. Text #1
  54. ID                                       : 3
  55. Format                                   : Timed Text
  56. Codec ID                                 : tx3g
  57. Duration                                 : 2 h 18 min
  58. Bit rate mode                            : Variable
  59. Bit rate                                 : 54 b/s
  60. Frame rate                               : 0.410 FPS
  61. Stream size                              : 54.5 KiB (0%)
  62. Title                                    : English
  63. Language                                 : English
  64. Forced                                   : No
  65. Encoded date                             : UTC 2023-01-01 17:39:11
  66. Tagged date                              : UTC 2023-01-01 17:39:15
  67. Text #2
  68. ID                                       : 4
  69. Format                                   : Timed Text
  70. Codec ID                                 : tx3g
  71. Duration                                 : 2 h 14 min
  72. Bit rate mode                            : Variable
  73. Bit rate                                 : 65 b/s
  74. Frame rate                               : 0.476 FPS
  75. Stream size                              : 64.5 KiB (0%)
  76. Title                                    : English
  77. Language                                 : English
  78. Forced                                   : No
  79. Encoded date                             : UTC 2023-01-01 17:39:11
  80. Tagged date                              : UTC 2023-01-01 17:39:15
  81. Text #3
  82. ID                                       : 5
  83. Format                                   : Timed Text
  84. Codec ID                                 : tx3g
  85. Duration                                 : 2 h 15 min
  86. Bit rate mode                            : Variable
  87. Bit rate                                 : 85 b/s
  88. Frame rate                               : 0.655 FPS
  89. Stream size                              : 84.1 KiB (0%)
  90. Title                                    : English
  91. Language                                 : English
  92. Forced                                   : No
  93. Encoded date                             : UTC 2023-01-01 17:39:11
  94. Tagged date                              : UTC 2023-01-01 17:39:15
  95. Text #4
  96. ID                                       : 6
  97. Format                                   : Timed Text
  98. Codec ID                                 : tx3g
  99. Duration                                 : 2 h 14 min
  100. Bit rate mode                            : Variable
  101. Bit rate                                 : 97 b/s
  102. Frame rate                               : 0.434 FPS
  103. Stream size                              : 95.7 KiB (0%)
  104. Title                                    : Arabic
  105. Language                                 : Arabic
  106. Forced                                   : No
  107. Encoded date                             : UTC 2023-01-01 17:39:11
  108. Tagged date                              : UTC 2023-01-01 17:39:15
  109. Text #5
  110. ID                                       : 7
  111. Format                                   : Timed Text
  112. Codec ID                                 : tx3g
  113. Duration                                 : 2 h 18 min
  114. Bit rate mode                            : Variable
  115. Bit rate                                 : 59 b/s
  116. Frame rate                               : 0.429 FPS
  117. Stream size                              : 59.5 KiB (0%)
  118. Title                                    : Chinese-Simplified
  119. Language                                 : Chinese (Simplied)
  120. Forced                                   : No
  121. Encoded date                             : UTC 2023-01-01 17:39:11
  122. Tagged date                              : UTC 2023-01-01 17:39:15
  123. Text #6
  124. ID                                       : 8
  125. Format                                   : Timed Text
  126. Codec ID                                 : tx3g
  127. Duration                                 : 2 h 18 min
  128. Bit rate mode                            : Variable
  129. Bit rate                                 : 57 b/s
  130. Frame rate                               : 0.443 FPS
  131. Stream size                              : 57.6 KiB (0%)
  132. Title                                    : Chinese-Traditional
  133. Language                                 : Chinese (Traditional)
  134. Forced                                   : No
  135. Encoded date                             : UTC 2023-01-01 17:39:12
  136. Tagged date                              : UTC 2023-01-01 17:39:15
  137. Text #7
  138. ID                                       : 9
  139. Format                                   : Timed Text
  140. Codec ID                                 : tx3g
  141. Duration                                 : 2 h 18 min
  142. Bit rate mode                            : Variable
  143. Bit rate                                 : 48 b/s
  144. Frame rate                               : 0.424 FPS
  145. Stream size                              : 48.9 KiB (0%)
  146. Title                                    : Croatian
  147. Language                                 : Croatian
  148. Forced                                   : No
  149. Encoded date                             : UTC 2023-01-01 17:39:12
  150. Tagged date                              : UTC 2023-01-01 17:39:15
  151. Text #8
  152. ID                                       : 10
  153. Format                                   : Timed Text
  154. Codec ID                                 : tx3g
  155. Duration                                 : 2 h 18 min
  156. Bit rate mode                            : Variable
  157. Bit rate                                 : 52 b/s
  158. Frame rate                               : 0.424 FPS
  159. Stream size                              : 52.6 KiB (0%)
  160. Title                                    : Czech
  161. Language                                 : Czech
  162. Forced                                   : No
  163. Encoded date                             : UTC 2023-01-01 17:39:12
  164. Tagged date                              : UTC 2023-01-01 17:39:15
  165. Text #9
  166. ID                                       : 11
  167. Format                                   : Timed Text
  168. Codec ID                                 : tx3g
  169. Duration                                 : 2 h 18 min
  170. Bit rate mode                            : Variable
  171. Bit rate                                 : 50 b/s
  172. Frame rate                               : 0.411 FPS
  173. Stream size                              : 50.7 KiB (0%)
  174. Title                                    : Danish
  175. Language                                 : Danish
  176. Forced                                   : No
  177. Encoded date                             : UTC 2023-01-01 17:39:12
  178. Tagged date                              : UTC 2023-01-01 17:39:15
  179. Text #10
  180. ID                                       : 12
  181. Format                                   : Timed Text
  182. Codec ID                                 : tx3g
  183. Duration                                 : 2 h 18 min
  184. Bit rate mode                            : Variable
  185. Bit rate                                 : 49 b/s
  186. Frame rate                               : 0.360 FPS
  187. Stream size                              : 49.6 KiB (0%)
  188. Title                                    : Dutch
  189. Language                                 : Dutch
  190. Forced                                   : No
  191. Encoded date                             : UTC 2023-01-01 17:39:12
  192. Tagged date                              : UTC 2023-01-01 17:39:15
  193. Text #11
  194. ID                                       : 13
  195. Format                                   : Timed Text
  196. Codec ID                                 : tx3g
  197. Duration                                 : 2 h 18 min
  198. Bit rate mode                            : Variable
  199. Bit rate                                 : 48 b/s
  200. Frame rate                               : 0.422 FPS
  201. Stream size                              : 48.4 KiB (0%)
  202. Title                                    : Filipino
  203. Language                                 : fil
  204. Forced                                   : No
  205. Encoded date                             : UTC 2023-01-01 17:39:12
  206. Tagged date                              : UTC 2023-01-01 17:39:15
  207. Text #12
  208. ID                                       : 14
  209. Format                                   : Timed Text
  210. Codec ID                                 : tx3g
  211. Duration                                 : 2 h 18 min
  212. Bit rate mode                            : Variable
  213. Bit rate                                 : 51 b/s
  214. Frame rate                               : 0.419 FPS
  215. Stream size                              : 52.1 KiB (0%)
  216. Title                                    : Finnish
  217. Language                                 : Finnish
  218. Forced                                   : No
  219. Encoded date                             : UTC 2023-01-01 17:39:12
  220. Tagged date                              : UTC 2023-01-01 17:39:15
  221. Text #13
  222. ID                                       : 15
  223. Format                                   : Timed Text
  224. Codec ID                                 : tx3g
  225. Duration                                 : 2 h 18 min
  226. Bit rate mode                            : Variable
  227. Bit rate                                 : 50 b/s
  228. Frame rate                               : 0.416 FPS
  229. Stream size                              : 51.1 KiB (0%)
  230. Title                                    : French
  231. Language                                 : French
  232. Forced                                   : No
  233. Encoded date                             : UTC 2023-01-01 17:39:12
  234. Tagged date                              : UTC 2023-01-01 17:39:15
  235. Text #14
  236. ID                                       : 16
  237. Format                                   : Timed Text
  238. Codec ID                                 : tx3g
  239. Duration                                 : 2 h 18 min
  240. Bit rate mode                            : Variable
  241. Bit rate                                 : 52 b/s
  242. Frame rate                               : 0.417 FPS
  243. Stream size                              : 52.4 KiB (0%)
  244. Title                                    : German
  245. Language                                 : German
  246. Forced                                   : No
  247. Encoded date                             : UTC 2023-01-01 17:39:12
  248. Tagged date                              : UTC 2023-01-01 17:39:15
  249. Text #15
  250. ID                                       : 17
  251. Format                                   : Timed Text
  252. Codec ID                                 : tx3g
  253. Duration                                 : 2 h 18 min
  254. Bit rate mode                            : Variable
  255. Bit rate                                 : 82 b/s
  256. Frame rate                               : 0.405 FPS
  257. Stream size                              : 83.5 KiB (0%)
  258. Title                                    : Greek
  259. Language                                 : Greek
  260. Forced                                   : No
  261. Encoded date                             : UTC 2023-01-01 17:39:13
  262. Tagged date                              : UTC 2023-01-01 17:39:15
  263. Text #16
  264. ID                                       : 18
  265. Format                                   : Timed Text
  266. Codec ID                                 : tx3g
  267. Duration                                 : 2 h 18 min
  268. Bit rate mode                            : Variable
  269. Bit rate                                 : 83 b/s
  270. Frame rate                               : 0.441 FPS
  271. Stream size                              : 84.4 KiB (0%)
  272. Title                                    : Hebrew
  273. Language                                 : Hebrew
  274. Forced                                   : No
  275. Encoded date                             : UTC 2023-01-01 17:39:13
  276. Tagged date                              : UTC 2023-01-01 17:39:15
  277. Text #17
  278. ID                                       : 19
  279. Format                                   : Timed Text
  280. Codec ID                                 : tx3g
  281. Duration                                 : 2 h 18 min
  282. Bit rate mode                            : Variable
  283. Bit rate                                 : 57 b/s
  284. Frame rate                               : 0.389 FPS
  285. Stream size                              : 57.5 KiB (0%)
  286. Title                                    : Hungarian
  287. Language                                 : Hungarian
  288. Forced                                   : No
  289. Encoded date                             : UTC 2023-01-01 17:39:13
  290. Tagged date                              : UTC 2023-01-01 17:39:15
  291. Text #18
  292. ID                                       : 20
  293. Format                                   : Timed Text
  294. Codec ID                                 : tx3g
  295. Duration                                 : 2 h 18 min
  296. Bit rate mode                            : Variable
  297. Bit rate                                 : 56 b/s
  298. Frame rate                               : 0.428 FPS
  299. Stream size                              : 56.2 KiB (0%)
  300. Title                                    : Indonesian
  301. Language                                 : Indonesian
  302. Forced                                   : No
  303. Encoded date                             : UTC 2023-01-01 17:39:13
  304. Tagged date                              : UTC 2023-01-01 17:39:15
  305. Text #19
  306. ID                                       : 21
  307. Format                                   : Timed Text
  308. Codec ID                                 : tx3g
  309. Duration                                 : 2 h 18 min
  310. Bit rate mode                            : Variable
  311. Bit rate                                 : 51 b/s
  312. Frame rate                               : 0.418 FPS
  313. Stream size                              : 52.1 KiB (0%)
  314. Title                                    : Italian
  315. Language                                 : Italian
  316. Forced                                   : No
  317. Encoded date                             : UTC 2023-01-01 17:39:13
  318. Tagged date                              : UTC 2023-01-01 17:39:15
  319. Text #20
  320. ID                                       : 22
  321. Format                                   : Timed Text
  322. Codec ID                                 : tx3g
  323. Duration                                 : 2 h 14 min
  324. Bit rate mode                            : Variable
  325. Bit rate                                 : 58 b/s
  326. Frame rate                               : 0.425 FPS
  327. Stream size                              : 57.3 KiB (0%)
  328. Title                                    : Japanese
  329. Language                                 : Japanese
  330. Forced                                   : No
  331. Encoded date                             : UTC 2023-01-01 17:39:13
  332. Tagged date                              : UTC 2023-01-01 17:39:15
  333. Text #21
  334. ID                                       : 23
  335. Format                                   : Timed Text
  336. Codec ID                                 : tx3g
  337. Duration                                 : 2 h 14 min
  338. Bit rate mode                            : Variable
  339. Bit rate                                 : 113 b/s
  340. Frame rate                               : 0.683 FPS
  341. Stream size                              : 112 KiB (0%)
  342. Title                                    : Korean
  343. Language                                 : Korean
  344. Forced                                   : No
  345. Encoded date                             : UTC 2023-01-01 17:39:13
  346. Tagged date                              : UTC 2023-01-01 17:39:15
  347. Text #22
  348. ID                                       : 24
  349. Format                                   : Timed Text
  350. Codec ID                                 : tx3g
  351. Duration                                 : 46 min 35 s
  352. Bit rate mode                            : Variable
  353. Bit rate                                 : 1 b/s
  354. Frame rate                               : 0.008 FPS
  355. Stream size                              : 316 Bytes (0%)
  356. Title                                    : Korean
  357. Language                                 : Korean
  358. Forced                                   : No
  359. Encoded date                             : UTC 2023-01-01 17:39:13
  360. Tagged date                              : UTC 2023-01-01 17:39:15
  361. Text #23
  362. ID                                       : 25
  363. Format                                   : Timed Text
  364. Codec ID                                 : tx3g
  365. Duration                                 : 2 h 18 min
  366. Bit rate mode                            : Variable
  367. Bit rate                                 : 49 b/s
  368. Frame rate                               : 0.437 FPS
  369. Stream size                              : 49.7 KiB (0%)
  370. Title                                    : Malay
  371. Language                                 : Malay
  372. Forced                                   : No
  373. Encoded date                             : UTC 2023-01-01 17:39:13
  374. Tagged date                              : UTC 2023-01-01 17:39:15
  375. Text #24
  376. ID                                       : 26
  377. Format                                   : Timed Text
  378. Codec ID                                 : tx3g
  379. Duration                                 : 2 h 18 min
  380. Bit rate mode                            : Variable
  381. Bit rate                                 : 51 b/s
  382. Frame rate                               : 0.413 FPS
  383. Stream size                              : 51.9 KiB (0%)
  384. Title                                    : Norwegian
  385. Language                                 : Norwegian Bokmal
  386. Forced                                   : No
  387. Encoded date                             : UTC 2023-01-01 17:39:14
  388. Tagged date                              : UTC 2023-01-01 17:39:15
  389. Text #25
  390. ID                                       : 27
  391. Format                                   : Timed Text
  392. Codec ID                                 : tx3g
  393. Duration                                 : 2 h 18 min
  394. Bit rate mode                            : Variable
  395. Bit rate                                 : 49 b/s
  396. Frame rate                               : 0.417 FPS
  397. Stream size                              : 49.6 KiB (0%)
  398. Title                                    : Polish
  399. Language                                 : Polish
  400. Forced                                   : No
  401. Encoded date                             : UTC 2023-01-01 17:39:14
  402. Tagged date                              : UTC 2023-01-01 17:39:15
  403. Text #26
  404. ID                                       : 28
  405. Format                                   : Timed Text
  406. Codec ID                                 : tx3g
  407. Duration                                 : 2 h 18 min
  408. Bit rate mode                            : Variable
  409. Bit rate                                 : 48 b/s
  410. Frame rate                               : 0.421 FPS
  411. Stream size                              : 48.9 KiB (0%)
  412. Title                                    : Portuguese
  413. Language                                 : Portuguese
  414. Forced                                   : No
  415. Encoded date                             : UTC 2023-01-01 17:39:14
  416. Tagged date                              : UTC 2023-01-01 17:39:15
  417. Text #27
  418. ID                                       : 29
  419. Format                                   : Timed Text
  420. Codec ID                                 : tx3g
  421. Duration                                 : 2 h 18 min
  422. Bit rate mode                            : Variable
  423. Bit rate                                 : 54 b/s
  424. Frame rate                               : 0.422 FPS
  425. Stream size                              : 55.1 KiB (0%)
  426. Title                                    : Portuguese
  427. Language                                 : Portuguese
  428. Forced                                   : No
  429. Encoded date                             : UTC 2023-01-01 17:39:14
  430. Tagged date                              : UTC 2023-01-01 17:39:15
  431. Text #28
  432. ID                                       : 30
  433. Format                                   : Timed Text
  434. Codec ID                                 : tx3g
  435. Duration                                 : 2 h 18 min
  436. Bit rate mode                            : Variable
  437. Bit rate                                 : 58 b/s
  438. Frame rate                               : 0.412 FPS
  439. Stream size                              : 59.0 KiB (0%)
  440. Title                                    : Romanian
  441. Language                                 : Romanian
  442. Forced                                   : No
  443. Encoded date                             : UTC 2023-01-01 17:39:14
  444. Tagged date                              : UTC 2023-01-01 17:39:15
  445. Text #29
  446. ID                                       : 31
  447. Format                                   : Timed Text
  448. Codec ID                                 : tx3g
  449. Duration                                 : 2 h 18 min
  450. Bit rate mode                            : Variable
  451. Bit rate                                 : 78 b/s
  452. Frame rate                               : 0.412 FPS
  453. Stream size                              : 78.8 KiB (0%)
  454. Title                                    : Russian
  455. Language                                 : Russian
  456. Forced                                   : No
  457. Encoded date                             : UTC 2023-01-01 17:39:14
  458. Tagged date                              : UTC 2023-01-01 17:39:15
  459. Text #30
  460. ID                                       : 32
  461. Format                                   : Timed Text
  462. Codec ID                                 : tx3g
  463. Duration                                 : 2 h 18 min
  464. Bit rate mode                            : Variable
  465. Bit rate                                 : 52 b/s
  466. Frame rate                               : 0.416 FPS
  467. Stream size                              : 52.5 KiB (0%)
  468. Title                                    : Spanish-EU
  469. Language                                 : Spanish
  470. Forced                                   : No
  471. Encoded date                             : UTC 2023-01-01 17:39:14
  472. Tagged date                              : UTC 2023-01-01 17:39:15
  473. Text #31
  474. ID                                       : 33
  475. Format                                   : Timed Text
  476. Codec ID                                 : tx3g
  477. Duration                                 : 2 h 18 min
  478. Bit rate mode                            : Variable
  479. Bit rate                                 : 52 b/s
  480. Frame rate                               : 0.421 FPS
  481. Stream size                              : 52.5 KiB (0%)
  482. Title                                    : Spanish-EU
  483. Language                                 : Spanish
  484. Forced                                   : No
  485. Encoded date                             : UTC 2023-01-01 17:39:14
  486. Tagged date                              : UTC 2023-01-01 17:39:15
  487. Text #32
  488. ID                                       : 34
  489. Format                                   : Timed Text
  490. Codec ID                                 : tx3g
  491. Duration                                 : 2 h 18 min
  492. Bit rate mode                            : Variable
  493. Bit rate                                 : 57 b/s
  494. Frame rate                               : 0.425 FPS
  495. Stream size                              : 57.3 KiB (0%)
  496. Title                                    : Swedish
  497. Language                                 : Swedish
  498. Forced                                   : No
  499. Encoded date                             : UTC 2023-01-01 17:39:14
  500. Tagged date                              : UTC 2023-01-01 17:39:15
  501. Text #33
  502. ID                                       : 35
  503. Format                                   : Timed Text
  504. Codec ID                                 : tx3g
  505. Duration                                 : 2 h 18 min
  506. Bit rate mode                            : Variable
  507. Bit rate                                 : 138 b/s
  508. Frame rate                               : 0.450 FPS
  509. Stream size                              : 139 KiB (0%)
  510. Title                                    : Thai
  511. Language                                 : Thai
  512. Forced                                   : No
  513. Encoded date                             : UTC 2023-01-01 17:39:15
  514. Tagged date                              : UTC 2023-01-01 17:39:15
  515. Text #34
  516. ID                                       : 36
  517. Format                                   : Timed Text
  518. Codec ID                                 : tx3g
  519. Duration                                 : 2 h 18 min
  520. Bit rate mode                            : Variable
  521. Bit rate                                 : 52 b/s
  522. Frame rate                               : 0.422 FPS
  523. Stream size                              : 52.2 KiB (0%)
  524. Title                                    : Turkish
  525. Language                                 : Turkish
  526. Forced                                   : No
  527. Encoded date                             : UTC 2023-01-01 17:39:15
  528. Tagged date                              : UTC 2023-01-01 17:39:15
  529. Text #35
  530. ID                                       : 37
  531. Format                                   : Timed Text
  532. Codec ID                                 : tx3g
  533. Duration                                 : 2 h 18 min
  534. Bit rate mode                            : Variable
  535. Bit rate                                 : 72 b/s
  536. Frame rate                               : 0.416 FPS
  537. Stream size                              : 73.3 KiB (0%)
  538. Title                                    : Ukrainian
  539. Language                                 : Ukrainian
  540. Forced                                   : No
  541. Encoded date                             : UTC 2023-01-01 17:39:15
  542. Tagged date                              : UTC 2023-01-01 17:39:15
  543. Text #36
  544. ID                                       : 38
  545. Format                                   : Timed Text
  546. Codec ID                                 : tx3g
  547. Duration                                 : 2 h 18 min
  548. Bit rate mode                            : Variable
  549. Bit rate                                 : 72 b/s
  550. Frame rate                               : 0.420 FPS
  551. Stream size                              : 72.8 KiB (0%)
  552. Title                                    : Vietnamese
  553. Language                                 : Vietnamese
  554. Forced                                   : No
  555. Encoded date                             : UTC 2023-01-01 17:39:15
  556. Tagged date                              : UTC 2023-01-01 17:39:15
复制代码











回复

使用道具 举报

懒得打字嘛,点击右侧快捷回复 【右侧内容,后台自定义】
您需要登录后才可以回帖 登录 | 立即加入

本版积分规则

Copyright © 2024 Comsenz Inc. Powered by 蓝光电影网

本站内容由用户自主分享和转载自互联网,转载目的在于传递更多信息,并不代表本网赞同其观点和对其真实性负责。

如有侵权、违反国家法律政策行为,请联系我们,我们会第一时间及时清除和处理!

举报反馈邮箱:4k1080.com@gmail.com

快速回复 返回顶部 返回列表