找回密码

蓝光电影网

查看: 1253|回复: 0

[2160p-WEB] 野猫[中文字幕].Wildcat.2022.2160p.AMZN.WEB-DL.x265.8bit.SDR.DDP5.1-XEBEC 8.39GB

[复制链接]
蓝光币
1704
发表于 2023-1-6 23:13:01 | 显示全部楼层 |阅读模式


◎标  题 野猫
◎片  名 Wildcat
◎年  代 2022
◎产  地 美国
◎类  别 记载片
◎语  言 英语
◎上映日期 2022-09-02(特柳赖德电影节) / 2022-12-30(美国)
◎IMDb评分 8/10 (770人评价)
◎IMDb链接 https://www.imdb.com/title/tt13622204/
◎豆瓣链接 https://movie.douban.com/subject/36125229/
◎片  长 105分钟
◎简  介
  The British soldier Harry Turner was 18 when he was deployed to Afghanistan. He returned from the war a broken man. Struggling with PTSD, depression and suicidal thoughts, he travels deep into the Peruvian rainforest, where he meets the US scientist Samantha. Together, they take care of an orphaned ocelot, a small spotted wildcat.                                       
                                    The film consists partly of material that Harry...
  1. Video
  2. ID                                       : 1
  3. Format                                   : HEVC
  4. Format/Info                              : High Efficiency Video Coding
  5. Format profile                           : Main@L5@Main
  6. Codec ID                                 : V_MPEGH/ISO/HEVC
  7. Duration                                 : 1 h 45 min
  8. Bit rate                                 : 10.7 Mb/s
  9. Width                                    : 3 840 pixels
  10. Height                                   : 2 160 pixels
  11. Display aspect ratio                     : 16:9
  12. Frame rate mode                          : Constant
  13. Frame rate                               : 23.976 (24000/1001) FPS
  14. Standard                                 : NTSC
  15. Color space                              : YUV
  16. Chroma subsampling                       : 4:2:0
  17. Bit depth                                : 8 bits
  18. Bits/(Pixel*Frame)                       : 0.054
  19. Stream size                              : 7.91 GiB (94%)
  20. Writing library                          : x265 2.9_elemental+1-9e0607aa5b6f:[Linux][GCC 4.8.5][64 bit] 8bit+10bit+12bit
  21. Encoding settings                        : cpuid=1111039 / frame-threads=2 / wpp / no-pmode / no-pme / psnr / ssim / log-level=2 / csv / csv-log-level=2 / input-csp=1 / input-res=3840x2160 / interlace=0 / total-frames=0 / level-idc=50 / high-tier=1 / uhd-bd=0 / ref=5 / no-allow-non-conformance / no-repeat-headers / annexb / no-aud / no-hrd / info / hash=0 / no-temporal-layers / no-open-gop / min-keyint=61 / keyint=120 / gop-lookahead=0 / bframes=8 / b-adapt=2 / b-pyramid / bframe-bias=0 / rc-lookahead=120 / lookahead-slices=4 / scenecut=0 / radl=0 / no-intra-refresh / ctu=64 / min-cu-size=8 / rect / amp / max-tu-size=32 / tu-inter-depth=4 / tu-intra-depth=4 / limit-tu=4 / rdoq-level=2 / dynamic-rd=0.00 / no-ssim-rd / signhide / tskip / nr-intra=100 / nr-inter=600 / no-constrained-intra / strong-intra-smoothing / max-merge=3 / limit-refs=3 / limit-modes / me=3 / subme=3 / merange=57 / temporal-mvp / weightp / weightb / no-analyze-src-pics / deblock=0:0 / no-sao / no-sao-non-deblock / rd=4 / no-early-skip / no-rskip / no-fast-intra / tskip-fast / no-cu-lossless / b-intra / no-splitrd-skip / rdpenalty=0 / psy-rd=4.00 / psy-rdoq=10.00 / no-rd-refine / no-lossless / cbqpoffs=0 / crqpoffs=0 / rc=crf / crf=25.0 / qcomp=0.60 / qpstep=1 / stats-write=0 / stats-read=0 / vbv-maxrate=15000 / vbv-bufsize=20000 / vbv-init=0.9 / crf-max=0.0 / crf-min=0.0 / ipratio=1.10 / pbratio=1.00 / aq-mode=0 / aq-strength=1.50 / no-cutree / zone-count=0 / no-strict-cbr / qg-size=32 / rc-grain / qpmax=69 / qpmin=0 / const-vbv / sar=1 / overscan=0 / videoformat=2 / range=0 / colorprim=1 / transfer=1 / colormatrix=1 / chromaloc=0 / display-window=0 / max-cll=0,0 / min-luma=0 / max-luma=255 / log2-max-poc-lsb=8 / vui-timing-info / vui-hrd-info / slices=1 / opt-qp-pps / no-opt-ref-list-length-pps / no-multi-pass-opt-rps / scenecut-bias=0.05 / no-opt-cu-delta-qp / no-aq-motion / no-hdr / no-hdr-opt / no-dhdr10-opt / no-idr-recovery-sei / analysis-reuse-level=5 / scale-factor=0 / refine-intra=0 / refine-inter=0 / refine-mv=0 / no-limit-sao / ctu-info=0 / no-lowpass-dct / refine-mv-type=0 / copy-pic=1 / max-ausize-factor=1.0 / no-dynamic-refine / no-single-sei
  22. Default                                  : Yes
  23. Forced                                   : No
  24. Color range                              : Limited
  25. Color primaries                          : BT.709
  26. Transfer characteristics                 : BT.709
  27. Matrix coefficients                      : BT.709
  28. Audio
  29. ID                                       : 2
  30. Format                                   : E-AC-3
  31. Format/Info                              : Enhanced AC-3
  32. Commercial name                          : Dolby Digital Plus
  33. Codec ID                                 : A_EAC3
  34. Duration                                 : 1 h 45 min
  35. Bit rate mode                            : Constant
  36. Bit rate                                 : 640 kb/s
  37. Channel(s)                               : 6 channels
  38. Channel layout                           : L R C LFE Ls Rs
  39. Sampling rate                            : 48.0 kHz
  40. Frame rate                               : 31.250 FPS (1536 SPF)
  41. Compression mode                         : Lossy
  42. Stream size                              : 485 MiB (6%)
  43. Title                                    : English
  44. Language                                 : English
  45. Service kind                             : Complete Main
  46. Default                                  : Yes
  47. Forced                                   : No
  48. Text #1
  49. ID                                       : 3
  50. Format                                   : UTF-8
  51. Codec ID                                 : S_TEXT/UTF8
  52. Codec ID/Info                            : UTF-8 Plain Text
  53. Duration                                 : 1 h 31 min
  54. Bit rate                                 : 3 b/s
  55. Frame rate                               : 0.014 FPS
  56. Count of elements                        : 79
  57. Stream size                              : 2.32 KiB (0%)
  58. Title                                    : English (Forced)
  59. Language                                 : English
  60. Default                                  : Yes
  61. Forced                                   : Yes
  62. Text #2
  63. ID                                       : 4
  64. Format                                   : UTF-8
  65. Codec ID                                 : S_TEXT/UTF8
  66. Codec ID/Info                            : UTF-8 Plain Text
  67. Duration                                 : 1 h 45 min
  68. Bit rate                                 : 77 b/s
  69. Frame rate                               : 0.189 FPS
  70. Count of elements                        : 1203
  71. Stream size                              : 60.0 KiB (0%)
  72. Title                                    : Arabic
  73. Language                                 : Arabic
  74. Default                                  : No
  75. Forced                                   : No
  76. Text #3
  77. ID                                       : 5
  78. Format                                   : UTF-8
  79. Codec ID                                 : S_TEXT/UTF8
  80. Codec ID/Info                            : UTF-8 Plain Text
  81. Duration                                 : 1 h 45 min
  82. Bit rate                                 : 48 b/s
  83. Frame rate                               : 0.186 FPS
  84. Count of elements                        : 1181
  85. Stream size                              : 37.5 KiB (0%)
  86. Title                                    : Czech
  87. Language                                 : Czech
  88. Default                                  : No
  89. Forced                                   : No
  90. Text #4
  91. ID                                       : 6
  92. Format                                   : UTF-8
  93. Codec ID                                 : S_TEXT/UTF8
  94. Codec ID/Info                            : UTF-8 Plain Text
  95. Duration                                 : 1 h 45 min
  96. Bit rate                                 : 48 b/s
  97. Frame rate                               : 0.188 FPS
  98. Count of elements                        : 1196
  99. Stream size                              : 37.9 KiB (0%)
  100. Title                                    : Danish
  101. Language                                 : Danish
  102. Default                                  : No
  103. Forced                                   : No
  104. Text #5
  105. ID                                       : 7
  106. Format                                   : UTF-8
  107. Codec ID                                 : S_TEXT/UTF8
  108. Codec ID/Info                            : UTF-8 Plain Text
  109. Duration                                 : 1 h 45 min
  110. Bit rate                                 : 48 b/s
  111. Frame rate                               : 0.189 FPS
  112. Count of elements                        : 1197
  113. Stream size                              : 37.9 KiB (0%)
  114. Title                                    : German
  115. Language                                 : German
  116. Default                                  : No
  117. Forced                                   : No
  118. Text #6
  119. ID                                       : 8
  120. Format                                   : UTF-8
  121. Codec ID                                 : S_TEXT/UTF8
  122. Codec ID/Info                            : UTF-8 Plain Text
  123. Duration                                 : 1 h 45 min
  124. Bit rate                                 : 89 b/s
  125. Frame rate                               : 0.189 FPS
  126. Count of elements                        : 1201
  127. Stream size                              : 69.2 KiB (0%)
  128. Title                                    : Modern Greek (1453-)
  129. Language                                 : Greek
  130. Default                                  : No
  131. Forced                                   : No
  132. Text #7
  133. ID                                       : 9
  134. Format                                   : UTF-8
  135. Codec ID                                 : S_TEXT/UTF8
  136. Codec ID/Info                            : UTF-8 Plain Text
  137. Duration                                 : 1 h 44 min
  138. Bit rate                                 : 63 b/s
  139. Frame rate                               : 0.251 FPS
  140. Count of elements                        : 1574
  141. Stream size                              : 48.4 KiB (0%)
  142. Title                                    : English (SDH)
  143. Language                                 : English
  144. Default                                  : No
  145. Forced                                   : No
  146. Text #8
  147. ID                                       : 10
  148. Format                                   : UTF-8
  149. Codec ID                                 : S_TEXT/UTF8
  150. Codec ID/Info                            : UTF-8 Plain Text
  151. Duration                                 : 1 h 45 min
  152. Bit rate                                 : 44 b/s
  153. Frame rate                               : 0.178 FPS
  154. Count of elements                        : 1130
  155. Stream size                              : 34.2 KiB (0%)
  156. Title                                    : Spanish
  157. Language                                 : Spanish
  158. Default                                  : No
  159. Forced                                   : No
  160. Text #9
  161. ID                                       : 11
  162. Format                                   : UTF-8
  163. Codec ID                                 : S_TEXT/UTF8
  164. Codec ID/Info                            : UTF-8 Plain Text
  165. Duration                                 : 1 h 45 min
  166. Bit rate                                 : 42 b/s
  167. Frame rate                               : 0.178 FPS
  168. Count of elements                        : 1131
  169. Stream size                              : 33.1 KiB (0%)
  170. Title                                    : Spanish
  171. Language                                 : Spanish
  172. Default                                  : No
  173. Forced                                   : No
  174. Text #10
  175. ID                                       : 12
  176. Format                                   : UTF-8
  177. Codec ID                                 : S_TEXT/UTF8
  178. Codec ID/Info                            : UTF-8 Plain Text
  179. Duration                                 : 1 h 45 min
  180. Bit rate                                 : 46 b/s
  181. Frame rate                               : 0.189 FPS
  182. Count of elements                        : 1198
  183. Stream size                              : 36.3 KiB (0%)
  184. Title                                    : Finnish
  185. Language                                 : Finnish
  186. Default                                  : No
  187. Forced                                   : No
  188. Text #11
  189. ID                                       : 13
  190. Format                                   : UTF-8
  191. Codec ID                                 : S_TEXT/UTF8
  192. Codec ID/Info                            : UTF-8 Plain Text
  193. Duration                                 : 1 h 45 min
  194. Bit rate                                 : 48 b/s
  195. Frame rate                               : 0.188 FPS
  196. Count of elements                        : 1194
  197. Stream size                              : 37.6 KiB (0%)
  198. Title                                    : Filipino
  199. Language                                 : fil
  200. Default                                  : No
  201. Forced                                   : No
  202. Text #12
  203. ID                                       : 14
  204. Format                                   : UTF-8
  205. Codec ID                                 : S_TEXT/UTF8
  206. Codec ID/Info                            : UTF-8 Plain Text
  207. Duration                                 : 1 h 45 min
  208. Bit rate                                 : 47 b/s
  209. Frame rate                               : 0.189 FPS
  210. Count of elements                        : 1198
  211. Stream size                              : 36.9 KiB (0%)
  212. Title                                    : French
  213. Language                                 : French
  214. Default                                  : No
  215. Forced                                   : No
  216. Text #13
  217. ID                                       : 15
  218. Format                                   : UTF-8
  219. Codec ID                                 : S_TEXT/UTF8
  220. Codec ID/Info                            : UTF-8 Plain Text
  221. Duration                                 : 1 h 45 min
  222. Bit rate                                 : 75 b/s
  223. Frame rate                               : 0.190 FPS
  224. Count of elements                        : 1204
  225. Stream size                              : 58.7 KiB (0%)
  226. Title                                    : Hebrew
  227. Language                                 : Hebrew
  228. Default                                  : No
  229. Forced                                   : No
  230. Text #14
  231. ID                                       : 16
  232. Format                                   : UTF-8
  233. Codec ID                                 : S_TEXT/UTF8
  234. Codec ID/Info                            : UTF-8 Plain Text
  235. Duration                                 : 1 h 45 min
  236. Bit rate                                 : 118 b/s
  237. Frame rate                               : 0.190 FPS
  238. Count of elements                        : 1204
  239. Stream size                              : 91.6 KiB (0%)
  240. Title                                    : Hindi
  241. Language                                 : Hindi
  242. Default                                  : No
  243. Forced                                   : No
  244. Text #15
  245. ID                                       : 17
  246. Format                                   : UTF-8
  247. Codec ID                                 : S_TEXT/UTF8
  248. Codec ID/Info                            : UTF-8 Plain Text
  249. Duration                                 : 1 h 45 min
  250. Bit rate                                 : 50 b/s
  251. Frame rate                               : 0.189 FPS
  252. Count of elements                        : 1202
  253. Stream size                              : 39.2 KiB (0%)
  254. Title                                    : Hungarian
  255. Language                                 : Hungarian
  256. Default                                  : No
  257. Forced                                   : No
  258. Text #16
  259. ID                                       : 18
  260. Format                                   : UTF-8
  261. Codec ID                                 : S_TEXT/UTF8
  262. Codec ID/Info                            : UTF-8 Plain Text
  263. Duration                                 : 1 h 45 min
  264. Bit rate                                 : 46 b/s
  265. Frame rate                               : 0.189 FPS
  266. Count of elements                        : 1202
  267. Stream size                              : 35.8 KiB (0%)
  268. Title                                    : Indonesian
  269. Language                                 : Indonesian
  270. Default                                  : No
  271. Forced                                   : No
  272. Text #17
  273. ID                                       : 19
  274. Format                                   : UTF-8
  275. Codec ID                                 : S_TEXT/UTF8
  276. Codec ID/Info                            : UTF-8 Plain Text
  277. Duration                                 : 1 h 45 min
  278. Bit rate                                 : 49 b/s
  279. Frame rate                               : 0.189 FPS
  280. Count of elements                        : 1201
  281. Stream size                              : 38.2 KiB (0%)
  282. Title                                    : Italian
  283. Language                                 : Italian
  284. Default                                  : No
  285. Forced                                   : No
  286. Text #18
  287. ID                                       : 20
  288. Format                                   : UTF-8
  289. Codec ID                                 : S_TEXT/UTF8
  290. Codec ID/Info                            : UTF-8 Plain Text
  291. Duration                                 : 1 h 45 min
  292. Bit rate                                 : 46 b/s
  293. Frame rate                               : 0.182 FPS
  294. Count of elements                        : 1151
  295. Stream size                              : 35.7 KiB (0%)
  296. Title                                    : Japanese
  297. Language                                 : Japanese
  298. Default                                  : No
  299. Forced                                   : No
  300. Text #19
  301. ID                                       : 21
  302. Format                                   : UTF-8
  303. Codec ID                                 : S_TEXT/UTF8
  304. Codec ID/Info                            : UTF-8 Plain Text
  305. Duration                                 : 1 h 45 min
  306. Bit rate                                 : 52 b/s
  307. Frame rate                               : 0.190 FPS
  308. Count of elements                        : 1204
  309. Stream size                              : 41.0 KiB (0%)
  310. Title                                    : Korean
  311. Language                                 : Korean
  312. Default                                  : No
  313. Forced                                   : No
  314. Text #20
  315. ID                                       : 22
  316. Format                                   : UTF-8
  317. Codec ID                                 : S_TEXT/UTF8
  318. Codec ID/Info                            : UTF-8 Plain Text
  319. Duration                                 : 1 h 45 min
  320. Bit rate                                 : 47 b/s
  321. Frame rate                               : 0.189 FPS
  322. Count of elements                        : 1199
  323. Stream size                              : 36.7 KiB (0%)
  324. Title                                    : Malay (macrolanguage)
  325. Language                                 : Malay
  326. Default                                  : No
  327. Forced                                   : No
  328. Text #21
  329. ID                                       : 23
  330. Format                                   : UTF-8
  331. Codec ID                                 : S_TEXT/UTF8
  332. Codec ID/Info                            : UTF-8 Plain Text
  333. Duration                                 : 1 h 45 min
  334. Bit rate                                 : 46 b/s
  335. Frame rate                               : 0.189 FPS
  336. Count of elements                        : 1197
  337. Stream size                              : 36.1 KiB (0%)
  338. Title                                    : Norwegian Bokm?l
  339. Language                                 : Norwegian Bokmal
  340. Default                                  : No
  341. Forced                                   : No
  342. Text #22
  343. ID                                       : 24
  344. Format                                   : UTF-8
  345. Codec ID                                 : S_TEXT/UTF8
  346. Codec ID/Info                            : UTF-8 Plain Text
  347. Duration                                 : 1 h 45 min
  348. Bit rate                                 : 47 b/s
  349. Frame rate                               : 0.189 FPS
  350. Count of elements                        : 1198
  351. Stream size                              : 36.5 KiB (0%)
  352. Title                                    : Dutch
  353. Language                                 : Dutch
  354. Default                                  : No
  355. Forced                                   : No
  356. Text #23
  357. ID                                       : 25
  358. Format                                   : UTF-8
  359. Codec ID                                 : S_TEXT/UTF8
  360. Codec ID/Info                            : UTF-8 Plain Text
  361. Duration                                 : 1 h 45 min
  362. Bit rate                                 : 39 b/s
  363. Frame rate                               : 0.188 FPS
  364. Count of elements                        : 1196
  365. Stream size                              : 30.4 KiB (0%)
  366. Title                                    : Polish
  367. Language                                 : Polish
  368. Default                                  : No
  369. Forced                                   : No
  370. Text #24
  371. ID                                       : 26
  372. Format                                   : UTF-8
  373. Codec ID                                 : S_TEXT/UTF8
  374. Codec ID/Info                            : UTF-8 Plain Text
  375. Duration                                 : 1 h 45 min
  376. Bit rate                                 : 48 b/s
  377. Frame rate                               : 0.189 FPS
  378. Count of elements                        : 1201
  379. Stream size                              : 37.7 KiB (0%)
  380. Title                                    : Portuguese
  381. Language                                 : Portuguese
  382. Default                                  : No
  383. Forced                                   : No
  384. Text #25
  385. ID                                       : 27
  386. Format                                   : UTF-8
  387. Codec ID                                 : S_TEXT/UTF8
  388. Codec ID/Info                            : UTF-8 Plain Text
  389. Duration                                 : 1 h 45 min
  390. Bit rate                                 : 46 b/s
  391. Frame rate                               : 0.189 FPS
  392. Count of elements                        : 1198
  393. Stream size                              : 35.8 KiB (0%)
  394. Title                                    : Portuguese
  395. Language                                 : Portuguese
  396. Default                                  : No
  397. Forced                                   : No
  398. Text #26
  399. ID                                       : 28
  400. Format                                   : UTF-8
  401. Codec ID                                 : S_TEXT/UTF8
  402. Codec ID/Info                            : UTF-8 Plain Text
  403. Duration                                 : 1 h 45 min
  404. Bit rate                                 : 48 b/s
  405. Frame rate                               : 0.189 FPS
  406. Count of elements                        : 1201
  407. Stream size                              : 37.8 KiB (0%)
  408. Title                                    : Romanian
  409. Language                                 : Romanian
  410. Default                                  : No
  411. Forced                                   : No
  412. Text #27
  413. ID                                       : 29
  414. Format                                   : UTF-8
  415. Codec ID                                 : S_TEXT/UTF8
  416. Codec ID/Info                            : UTF-8 Plain Text
  417. Duration                                 : 1 h 45 min
  418. Bit rate                                 : 76 b/s
  419. Frame rate                               : 0.190 FPS
  420. Count of elements                        : 1204
  421. Stream size                              : 59.6 KiB (0%)
  422. Title                                    : Russian
  423. Language                                 : Russian
  424. Default                                  : No
  425. Forced                                   : No
  426. Text #28
  427. ID                                       : 30
  428. Format                                   : UTF-8
  429. Codec ID                                 : S_TEXT/UTF8
  430. Codec ID/Info                            : UTF-8 Plain Text
  431. Duration                                 : 1 h 45 min
  432. Bit rate                                 : 49 b/s
  433. Frame rate                               : 0.188 FPS
  434. Count of elements                        : 1194
  435. Stream size                              : 38.5 KiB (0%)
  436. Title                                    : Swedish
  437. Language                                 : Swedish
  438. Default                                  : No
  439. Forced                                   : No
  440. Text #29
  441. ID                                       : 31
  442. Format                                   : UTF-8
  443. Codec ID                                 : S_TEXT/UTF8
  444. Codec ID/Info                            : UTF-8 Plain Text
  445. Duration                                 : 1 h 45 min
  446. Bit rate                                 : 129 b/s
  447. Frame rate                               : 0.190 FPS
  448. Count of elements                        : 1204
  449. Stream size                              : 101 KiB (0%)
  450. Title                                    : Tamil
  451. Language                                 : Tamil
  452. Default                                  : No
  453. Forced                                   : No
  454. Text #30
  455. ID                                       : 32
  456. Format                                   : UTF-8
  457. Codec ID                                 : S_TEXT/UTF8
  458. Codec ID/Info                            : UTF-8 Plain Text
  459. Duration                                 : 1 h 45 min
  460. Bit rate                                 : 123 b/s
  461. Frame rate                               : 0.190 FPS
  462. Count of elements                        : 1204
  463. Stream size                              : 95.9 KiB (0%)
  464. Title                                    : Telugu
  465. Language                                 : Telugu
  466. Default                                  : No
  467. Forced                                   : No
  468. Text #31
  469. ID                                       : 33
  470. Format                                   : UTF-8
  471. Codec ID                                 : S_TEXT/UTF8
  472. Codec ID/Info                            : UTF-8 Plain Text
  473. Duration                                 : 1 h 45 min
  474. Bit rate                                 : 117 b/s
  475. Frame rate                               : 0.190 FPS
  476. Count of elements                        : 1204
  477. Stream size                              : 91.3 KiB (0%)
  478. Title                                    : Thai
  479. Language                                 : Thai
  480. Default                                  : No
  481. Forced                                   : No
  482. Text #32
  483. ID                                       : 34
  484. Format                                   : UTF-8
  485. Codec ID                                 : S_TEXT/UTF8
  486. Codec ID/Info                            : UTF-8 Plain Text
  487. Duration                                 : 1 h 45 min
  488. Bit rate                                 : 48 b/s
  489. Frame rate                               : 0.189 FPS
  490. Count of elements                        : 1203
  491. Stream size                              : 37.5 KiB (0%)
  492. Title                                    : Turkish
  493. Language                                 : Turkish
  494. Default                                  : No
  495. Forced                                   : No
  496. Text #33
  497. ID                                       : 35
  498. Format                                   : UTF-8
  499. Codec ID                                 : S_TEXT/UTF8
  500. Codec ID/Info                            : UTF-8 Plain Text
  501. Duration                                 : 1 h 45 min
  502. Bit rate                                 : 72 b/s
  503. Frame rate                               : 0.190 FPS
  504. Count of elements                        : 1204
  505. Stream size                              : 56.3 KiB (0%)
  506. Title                                    : Ukrainian
  507. Language                                 : Ukrainian
  508. Default                                  : No
  509. Forced                                   : No
  510. Text #34
  511. ID                                       : 36
  512. Format                                   : UTF-8
  513. Codec ID                                 : S_TEXT/UTF8
  514. Codec ID/Info                            : UTF-8 Plain Text
  515. Duration                                 : 1 h 45 min
  516. Bit rate                                 : 60 b/s
  517. Frame rate                               : 0.189 FPS
  518. Count of elements                        : 1202
  519. Stream size                              : 46.8 KiB (0%)
  520. Title                                    : Vietnamese
  521. Language                                 : Vietnamese
  522. Default                                  : No
  523. Forced                                   : No
  524. Text #35
  525. ID                                       : 37
  526. Format                                   : UTF-8
  527. Codec ID                                 : S_TEXT/UTF8
  528. Codec ID/Info                            : UTF-8 Plain Text
  529. Duration                                 : 1 h 45 min
  530. Bit rate                                 : 46 b/s
  531. Frame rate                               : 0.190 FPS
  532. Count of elements                        : 1204
  533. Stream size                              : 36.1 KiB (0%)
  534. Title                                    : Simplified, Chinese
  535. Language                                 : Chinese
  536. Default                                  : No
  537. Forced                                   : No
  538. Text #36
  539. ID                                       : 38
  540. Format                                   : UTF-8
  541. Codec ID                                 : S_TEXT/UTF8
  542. Codec ID/Info                            : UTF-8 Plain Text
  543. Duration                                 : 1 h 45 min
  544. Bit rate                                 : 45 b/s
  545. Frame rate                               : 0.190 FPS
  546. Count of elements                        : 1204
  547. Stream size                              : 35.0 KiB (0%)
  548. Title                                    : Traditional, Chinese
  549. Language                                 : Chinese
  550. Default                                  : No
  551. Forced                                   : No
  552. Menu
  553. 00:00:00.000                             : en:Warning
  554. 00:00:12.000                             : en:Studio Logo
  555. 00:01:00.000                             : en:Scene 3
  556. 00:03:02.000                             : en:Title Sequence
  557. 00:03:07.000                             : en:Scene 5
  558. 00:06:28.000                             : en:Scene 6
  559. 00:10:24.000                             : en:Scene 7
  560. 00:14:15.000                             : en:Scene 8
  561. 00:17:14.000                             : en:Scene 9
  562. 00:20:45.000                             : en:Scene 10
  563. 00:25:47.000                             : en:Scene 11
  564. 00:30:40.000                             : en:Scene 12
  565. 00:35:31.000                             : en:Scene 13
  566. 00:38:56.000                             : en:Scene 14
  567. 00:41:56.000                             : en:Scene 15
  568. 00:46:45.000                             : en:Scene 16
  569. 00:50:56.000                             : en:Scene 17
  570. 00:54:09.000                             : en:Scene 18
  571. 00:58:26.000                             : en:Scene 19
  572. 01:02:47.000                             : en:Scene 20
  573. 01:05:01.000                             : en:Scene 21
  574. 01:09:28.000                             : en:Scene 22
  575. 01:12:09.000                             : en:Scene 23
  576. 01:16:09.000                             : en:Scene 24
  577. 01:20:12.000                             : en:Scene 25
  578. 01:24:55.000                             : en:Scene 26
  579. 01:27:21.000                             : en:Scene 27
  580. 01:33:24.000                             : en:Scene 28
  581. 01:36:31.000                             : en:Scene 29
  582. 01:39:12.000                             : en:Scene 30
  583. 01:41:30.000                             : en:Scene 31
  584. 01:41:39.000                             : en:End Credits
复制代码











回复

使用道具 举报

懒得打字嘛,点击右侧快捷回复 【右侧内容,后台自定义】
您需要登录后才可以回帖 登录 | 立即加入

本版积分规则

Archiver|小黑屋| 蓝光电影网 |网站地图

Copyright © 2021 Comsenz Inc. Powered by 蓝光电影网

蓝光电影网

本站内容由用户自主分享和转载自互联网,转载目的在于传递更多信息,并不代表本网赞同其观点和对其真实性负责。

如有侵权、违反国家法律政策行为,请联系我们,我们会第一时间及时清除和处理!

举报反馈邮箱:4k1080.com@gmail.com

快速回复 返回顶部 返回列表