找回密码

蓝光电影网

查看: 1016|回复: 0

[剧情] 玛琳娜的杀戮四段式.Marlina.The.Murderer.In.Four.Acts.2017.INDONESIAN.1080p.BluRay.x264.DTS-SbR 11.92GB

[复制链接]
蓝光币
1704
发表于 2023-1-8 00:45:27 | 显示全部楼层 |阅读模式


◎标  题 玛琳娜的杀戮四段式
◎译  名 复仇女万里歼狼(港) / 玛莉娜之杀人四幕(台) / 玛琳娜之杀人四幕 / Marlina the Murderer in Four Acts
◎片  名 Marlina Si Pembunuh dalam Empat Babak
◎年  代 2017
◎产  地 印度尼西亚 / 法国 / 马来西亚 / 泰国
◎类  别 剧情 / 惊悚
◎语  言 印度尼西亚语
◎上映日期 2017-05-24(戛纳电影节) / 2018-03-08(马来西亚)
◎IMDb评分 6.9/10 (3130人评价)
◎IMDb链接 https://www.imdb.com/title/tt5923026/
◎豆瓣评分 6.2/10 (1380人评价)
◎豆瓣链接 https://movie.douban.com/subject/27025848/
◎片  长 93分钟
◎导  演 莫莉·苏亚 Mouly Surya
◎编  剧 拉马·阿迪 Rama Adi
       加林·努格罗 Garin Nugroho
       莫莉·苏亚 Mouly Surya
◎演  员 玛莎·蒂莫西 Marsha Timothy
       埃吉·费德里 Egy Fedly
       图帕尔·坦普波隆 Tumpal Tampubolon
       尤佳·普拉塔马 Yoga Pratama
       海达尔·萨利什 Haydar Salishz
       迪娅·潘德拉 Dea Panendra
       因陀罗·比乌罗 Indra Birowo
◎简  介
    影片报告了一个年轻孀妇的故事。她不幸遭受了七个强盗,他们不但偷走了她家的牲口,还强奸了她。《抢劫》《旅途》《反悔》《诞生》。遭到暴徒加害的玛琳娜出于侵占,杀掉他们中的几人。为了寻觅正义,她踏上了保卫权利、完成救赎的旅途。路途悠远,玛琳娜经常回忆起自己杀死的人,那伙暴徒中在世的两人也起头伺机报复……
  1. Video
  2. ID                                       : 1
  3. Format                                   : AVC
  4. Format/Info                              : Advanced Video Codec
  5. Format profile                           : High@L4.1
  6. Format settings                          : CABAC / 4 Ref Frames
  7. Format settings, CABAC                   : Yes
  8. Format settings, Reference frames        : 4 frames
  9. Codec ID                                 : V_MPEG4/ISO/AVC
  10. Duration                                 : 1 h 33 min
  11. Bit rate                                 : 16.8 Mb/s
  12. Width                                    : 1 920 pixels
  13. Height                                   : 804 pixels
  14. Display aspect ratio                     : 2.40:1
  15. Frame rate mode                          : Constant
  16. Frame rate                               : 24.000 FPS
  17. Color space                              : YUV
  18. Chroma subsampling                       : 4:2:0
  19. Bit depth                                : 8 bits
  20. Scan type                                : Progressive
  21. Bits/(Pixel*Frame)                       : 0.452
  22. Stream size                              : 10.9 GiB (92%)
  23. Writing library                          : x264 core 152 r2851kMod ba24899
  24. Encoding settings                        : cabac=1 / ref=4 / deblock=1:-3:-3 / analyse=0x3:0x133 / me=umh / subme=11 / psy=1 / fade_compensate=0.00 / psy_rd=1.00:0.00 / mixed_ref=1 / me_range=32 / chroma_me=1 / trellis=2 / 8x8dct=1 / cqm=0 / deadzone=21,11 / fast_pskip=1 / chroma_qp_offset=-2 / threads=25 / lookahead_threads=6 / sliced_threads=0 / nr=0 / decimate=1 / interlaced=0 / bluray_compat=0 / constrained_intra=0 / bframes=10 / b_pyramid=2 / b_adapt=2 / b_bias=0 / direct=3 / weightb=1 / open_gop=0 / weightp=2 / keyint=250 / keyint_min=24 / scenecut=40 / intra_refresh=0 / rc=crf / mbtree=0 / crf=14.5000 / qcomp=0.65 / qpmin=0 / qpmax=69 / qpstep=4 / ip_ratio=1.25 / pb_ratio=1.20 / aq=1:0.60
  25. Language                                 : Indonesian
  26. Default                                  : Yes
  27. Forced                                   : No
  28. Audio
  29. ID                                       : 2
  30. Format                                   : DTS
  31. Format/Info                              : Digital Theater Systems
  32. Codec ID                                 : A_DTS
  33. Duration                                 : 1 h 33 min
  34. Bit rate mode                            : Constant
  35. Bit rate                                 : 1 509 kb/s
  36. Channel(s)                               : 6 channels
  37. Channel layout                           : C L R Ls Rs LFE
  38. Sampling rate                            : 48.0 kHz
  39. Frame rate                               : 93.750 FPS (512 SPF)
  40. Bit depth                                : 24 bits
  41. Compression mode                         : Lossy
  42. Stream size                              : 1 008 MiB (8%)
  43. Language                                 : Indonesian
  44. Default                                  : Yes
  45. Forced                                   : No
  46. Text #1
  47. ID                                       : 3
  48. Format                                   : ASS
  49. Codec ID                                 : S_TEXT/ASS
  50. Codec ID/Info                            : Advanced Sub Station Alpha
  51. Duration                                 : 1 h 23 min
  52. Bit rate                                 : 36 b/s
  53. Frame rate                               : 0.108 FPS
  54. Count of elements                        : 538
  55. Compression mode                         : Lossless
  56. Stream size                              : 22.3 KiB (0%)
  57. Language                                 : English
  58. Default                                  : No
  59. Forced                                   : No
  60. Text #2
  61. ID                                       : 4
  62. Format                                   : UTF-8
  63. Codec ID                                 : S_TEXT/UTF8
  64. Codec ID/Info                            : UTF-8 Plain Text
  65. Duration                                 : 1 h 23 min
  66. Bit rate                                 : 17 b/s
  67. Frame rate                               : 0.108 FPS
  68. Count of elements                        : 538
  69. Stream size                              : 10.8 KiB (0%)
  70. Language                                 : English
  71. Default                                  : No
  72. Forced                                   : No
  73. Text #3
  74. ID                                       : 5
  75. Format                                   : UTF-8
  76. Codec ID                                 : S_TEXT/UTF8
  77. Codec ID/Info                            : UTF-8 Plain Text
  78. Duration                                 : 1 h 25 min
  79. Bit rate                                 : 18 b/s
  80. Frame rate                               : 0.106 FPS
  81. Count of elements                        : 543
  82. Stream size                              : 11.5 KiB (0%)
  83. Language                                 : French
  84. Default                                  : No
  85. Forced                                   : No
  86. Menu
  87. 00:00:00.000                             : en:Chapter 01
  88. 00:27:29.833                             : en:Chapter 02
  89. 00:47:39.125                             : en:Chapter 03
  90. 01:02:22.333                             : en:Chapter 04
  91. 01:29:25.917                             : en:Chapter 05
复制代码











回复

使用道具 举报

懒得打字嘛,点击右侧快捷回复 【右侧内容,后台自定义】
您需要登录后才可以回帖 登录 | 立即加入

本版积分规则

Archiver|小黑屋| 蓝光电影网 |网站地图

Copyright © 2021 Comsenz Inc. Powered by 蓝光电影网

蓝光电影网

本站内容由用户自主分享和转载自互联网,转载目的在于传递更多信息,并不代表本网赞同其观点和对其真实性负责。

如有侵权、违反国家法律政策行为,请联系我们,我们会第一时间及时清除和处理!

举报反馈邮箱:4k1080.com@gmail.com

快速回复 返回顶部 返回列表