找回密码

蓝光电影网

查看: 46|回复: 1

[悬疑] 灰天鹅绒上的四只苍蝇.Four.Flies.On.Grey.Velvet.1971.ITALIAN.THEATRICAL.1080p.BluRay.REMUX.AVC.DTS-HD.MA.2.0-FGT 28.76GB

[复制链接]
蓝光币
1084
发表于 2023-1-8 00:47:13 | 显示全部楼层 |阅读模式


◎标  题 灰天鹅绒上的四只苍蝇
◎译  名 Four Flies on Grey Velvet
◎片  名 4 mosche di velluto grigio
◎年  代 1971
◎产  地 意大利 / 法国
◎类  别 悬疑 / 惊悚 / 可骇
◎语  言 意大利语
◎上映日期 1971-12-17
◎IMDb评分 6.6/10 (8880人评价)
◎IMDb链接 https://www.imdb.com/title/tt0066735/
◎豆瓣评分 6.6/10 (422人评价)
◎豆瓣链接 https://movie.douban.com/subject/1849128/
◎片  长 104 分钟
◎导  演 达里奥·阿基多 Dario Argento
◎编  剧 达里奥·阿基多 Dario Argento
       路易吉·科齐 Luigi Cozzi
◎演  员 迈克尔·布兰登 Michael Brandon
       梅茜·珐玛 Mimsy Farmer
       让-皮埃尔·马里埃尔 Jean-Pierre Marielle
       弗朗辛·拉塞特 Francine Racette
       劳拉·德罗塞勒 Laura Troschel
       Marisa Fabbri Marisa Fabbri
       斯特凡诺·萨塔·弗洛雷斯 Stefano Satta Flores
       斯特法诺·奥佩迪萨诺 Stefano Oppedisano
       Diego Morreale Diego Morreale
       Fabrizio Moroni Fabrizio Moroni
       Corrado Olmi Corrado Olmi
       伦佐·马里尼亚诺 Renzo Marignano
       奥莱斯特·莱内罗 Oreste Lionello
       布德·斯藩塞 Bud Spencer
       路易吉·科齐 Luigi Cozzi
       Calisto Calisti Calisto Calisti
       Guerrino Crivello Guerrino Crivello
       桑德罗·铎尼 Sandro Dori
       阿尔多·巴菲·兰迪 Aldo Bufi Landi
       恩尼奥·莫里康内 Ennio Morricone
       Franco Di Giacomo Franco Di Giacomo
       弗朗西斯·波诺娃 Françoise Bonnot
       恩里科·萨巴蒂尼 Enrico Sabbatini
◎简  介
  Roberto, a drummer in a rock band, keeps receiving weird phone calls and being followed by a mysterious man. One night he manages to catch up with his persecutor and tries to get him to talk but in the ensuing struggle he accidentally stabs him. He runs away, but he understands his troubles have just begun when the following day he receives an envelope with photos of him killin...
  1. Video
  2. ID                                       : 1
  3. ID in the original source medium         : 4113 (0x1011)
  4. Format                                   : AVC
  5. Format/Info                              : Advanced Video Codec
  6. Format profile                           : [email protected]
  7. Format settings                          : CABAC / 4 Ref Frames
  8. Format settings, CABAC                   : Yes
  9. Format settings, Reference frames        : 4 frames
  10. Codec ID                                 : V_MPEG4/ISO/AVC
  11. Duration                                 : 1 h 41 min
  12. Bit rate mode                            : Variable
  13. Bit rate                                 : 37.0 Mb/s
  14. Width                                    : 1 920 pixels
  15. Height                                   : 1 080 pixels
  16. Display aspect ratio                     : 16:9
  17. Frame rate mode                          : Constant
  18. Frame rate                               : 23.976 (24000/1001) FPS
  19. Color space                              : YUV
  20. Chroma subsampling                       : 4:2:0
  21. Bit depth                                : 8 bits
  22. Scan type                                : Progressive
  23. Bits/(Pixel*Frame)                       : 0.744
  24. Stream size                              : 26.0 GiB (90%)
  25. Language                                 : English
  26. Default                                  : No
  27. Forced                                   : No
  28. Color range                              : Limited
  29. Color primaries                          : BT.709
  30. Transfer characteristics                 : BT.709
  31. Matrix coefficients                      : BT.709
  32. Original source medium                   : Blu-ray
  33. Audio #1
  34. ID                                       : 2
  35. ID in the original source medium         : 4353 (0x1101)
  36. Format                                   : DTS XLL
  37. Format/Info                              : Digital Theater Systems
  38. Commercial name                          : DTS-HD Master Audio
  39. Codec ID                                 : A_DTS
  40. Duration                                 : 1 h 41 min
  41. Bit rate mode                            : Variable
  42. Bit rate                                 : 1 828 kb/s
  43. Channel(s)                               : 2 channels
  44. Channel layout                           : L R
  45. Sampling rate                            : 48.0 kHz
  46. Frame rate                               : 93.750 FPS (512 SPF)
  47. Bit depth                                : 24 bits
  48. Compression mode                         : Lossless
  49. Stream size                              : 1.29 GiB (5%)
  50. Title                                    : DTS-HD MA 2.0
  51. Language                                 : Italian
  52. Default                                  : Yes
  53. Forced                                   : No
  54. Original source medium                   : Blu-ray
  55. Audio #2
  56. ID                                       : 3
  57. ID in the original source medium         : 4352 (0x1100)
  58. Format                                   : DTS XLL
  59. Format/Info                              : Digital Theater Systems
  60. Commercial name                          : DTS-HD Master Audio
  61. Codec ID                                 : A_DTS
  62. Duration                                 : 1 h 41 min
  63. Bit rate mode                            : Variable
  64. Bit rate                                 : 1 844 kb/s
  65. Channel(s)                               : 2 channels
  66. Channel layout                           : L R
  67. Sampling rate                            : 48.0 kHz
  68. Frame rate                               : 93.750 FPS (512 SPF)
  69. Bit depth                                : 24 bits
  70. Compression mode                         : Lossless
  71. Stream size                              : 1.31 GiB (5%)
  72. Title                                    : DTS-HD MA 2.0
  73. Language                                 : English
  74. Default                                  : No
  75. Forced                                   : No
  76. Original source medium                   : Blu-ray
  77. Audio #3
  78. ID                                       : 4
  79. ID in the original source medium         : 4354 (0x1102)
  80. Format                                   : AC-3
  81. Format/Info                              : Audio Coding 3
  82. Commercial name                          : Dolby Digital
  83. Codec ID                                 : A_AC3
  84. Duration                                 : 1 h 41 min
  85. Bit rate mode                            : Constant
  86. Bit rate                                 : 256 kb/s
  87. Channel(s)                               : 2 channels
  88. Channel layout                           : L R
  89. Sampling rate                            : 48.0 kHz
  90. Frame rate                               : 31.250 FPS (1536 SPF)
  91. Compression mode                         : Lossy
  92. Stream size                              : 186 MiB (1%)
  93. Title                                    : DD 2.0
  94. Language                                 : English
  95. Service kind                             : Complete Main
  96. Default                                  : No
  97. Forced                                   : No
  98. Original source medium                   : Blu-ray
  99. Text #1
  100. ID                                       : 5
  101. Format                                   : UTF-8
  102. Codec ID                                 : S_TEXT/UTF8
  103. Codec ID/Info                            : UTF-8 Plain Text
  104. Duration                                 : 1 h 31 min
  105. Bit rate                                 : 0 b/s
  106. Frame rate                               : 0.001 FPS
  107. Count of elements                        : 8
  108. Stream size                              : 388 Bytes (0%)
  109. Title                                    : FORCED
  110. Language                                 : English
  111. Default                                  : No
  112. Forced                                   : Yes
  113. Text #2
  114. ID                                       : 6
  115. Format                                   : UTF-8
  116. Codec ID                                 : S_TEXT/UTF8
  117. Codec ID/Info                            : UTF-8 Plain Text
  118. Duration                                 : 1 h 33 min
  119. Bit rate                                 : 29 b/s
  120. Frame rate                               : 0.138 FPS
  121. Count of elements                        : 779
  122. Stream size                              : 20.5 KiB (0%)
  123. Language                                 : English
  124. Default                                  : Yes
  125. Forced                                   : No
  126. Text #3
  127. ID                                       : 7
  128. Format                                   : UTF-8
  129. Codec ID                                 : S_TEXT/UTF8
  130. Codec ID/Info                            : UTF-8 Plain Text
  131. Duration                                 : 1 h 40 min
  132. Bit rate                                 : 33 b/s
  133. Frame rate                               : 0.161 FPS
  134. Count of elements                        : 975
  135. Stream size                              : 25.0 KiB (0%)
  136. Title                                    : SDH
  137. Language                                 : English
  138. Default                                  : No
  139. Forced                                   : No
  140. Text #4
  141. ID                                       : 8
  142. ID in the original source medium         : 4608 (0x1200)
  143. Format                                   : PGS
  144. Muxing mode                              : zlib
  145. Codec ID                                 : S_HDMV/PGS
  146. Codec ID/Info                            : Picture based subtitle format used on BDs/HD-DVDs
  147. Duration                                 : 1 h 31 min
  148. Bit rate                                 : 559 b/s
  149. Frame rate                               : 0.008 FPS
  150. Count of elements                        : 42
  151. Stream size                              : 374 KiB (0%)
  152. Language                                 : English
  153. Default                                  : No
  154. Forced                                   : No
  155. Original source medium                   : Blu-ray
  156. Text #5
  157. ID                                       : 9
  158. ID in the original source medium         : 4609 (0x1201)
  159. Format                                   : PGS
  160. Muxing mode                              : zlib
  161. Codec ID                                 : S_HDMV/PGS
  162. Codec ID/Info                            : Picture based subtitle format used on BDs/HD-DVDs
  163. Duration                                 : 1 h 40 min
  164. Bit rate                                 : 24.3 kb/s
  165. Frame rate                               : 0.290 FPS
  166. Count of elements                        : 1757
  167. Stream size                              : 17.5 MiB (0%)
  168. Language                                 : English
  169. Default                                  : No
  170. Forced                                   : No
  171. Original source medium                   : Blu-ray
  172. Text #6
  173. ID                                       : 10
  174. ID in the original source medium         : 4610 (0x1202)
  175. Format                                   : PGS
  176. Muxing mode                              : zlib
  177. Codec ID                                 : S_HDMV/PGS
  178. Codec ID/Info                            : Picture based subtitle format used on BDs/HD-DVDs
  179. Duration                                 : 1 h 37 min
  180. Bit rate                                 : 22.1 kb/s
  181. Frame rate                               : 0.236 FPS
  182. Count of elements                        : 1377
  183. Stream size                              : 15.4 MiB (0%)
  184. Language                                 : English
  185. Default                                  : No
  186. Forced                                   : No
  187. Original source medium                   : Blu-ray
  188. Menu
  189. 00:00:00.000                             : en:Chapter 01
  190. 00:07:13.975                             : en:Chapter 02
  191. 00:21:41.842                             : en:Chapter 03
  192. 00:29:39.402                             : en:Chapter 04
  193. 00:41:29.570                             : en:Chapter 05
  194. 00:52:23.932                             : en:Chapter 06
  195. 00:59:25.144                             : en:Chapter 07
  196. 01:09:31.917                             : en:Chapter 08
  197. 01:14:40.934                             : en:Chapter 09
  198. 01:22:33.031                             : en:Chapter 10
  199. 01:27:42.298                             : en:Chapter 11
  200. 01:38:04.253                             : en:Chapter 12
复制代码











回复

使用道具 举报

蓝光币
337
发表于 2023-1-8 14:15:51 | 显示全部楼层

既然你诚信诚意的推荐了,那我就勉为其难的看看吧!蓝光电影网不走平凡路。
回复 支持 反对

使用道具 举报

懒得打字嘛,点击右侧快捷回复 【右侧内容,后台自定义】
您需要登录后才可以回帖 登录 | 立即加入

本版积分规则

Archiver|小黑屋| 蓝光电影网 |网站地图

Copyright © 2021 Comsenz Inc. Powered by 蓝光电影网

蓝光电影网

本站内容由用户自主分享和转载自互联网,转载目的在于传递更多信息,并不代表本网赞同其观点和对其真实性负责。

如有侵权、违反国家法律政策行为,请联系我们,我们会第一时间及时清除和处理!

举报反馈邮箱:[email protected]

快速回复 返回顶部 返回列表