找回密码

蓝光电影网

查看: 24|回复: 0

[惊悚] 可卡危机.White.Rush.2003.1080p.AMZN.WEBRip.DDP2.0.x264-THR 5.95GB

[复制链接]
蓝光币
1080
发表于 2023-1-8 00:47:35 | 显示全部楼层 |阅读模式


◎标  题 可卡危机
◎片  名 White Rush
◎年  代 2003
◎产  地 美国
◎类  别 惊悚 / 犯罪
◎语  言 英语
◎上映日期 2003-05-18
◎IMDb评分 4.5/10 (374人评价)
◎IMDb链接 https://www.imdb.com/title/tt0338554/
◎豆瓣链接 https://movie.douban.com/subject/2131261/
◎片  长 Brazil: 87 分钟
◎导  演 马克·L·莱斯特 Mark L. Lester
◎演  员 贾德·尼尔森 Judd Nelson
       戴布拉·柔伊 Deborah Zoe
       汤姆·怀特 Tom Wright
        Santino Ramos
       翠西亚·希弗 Tricia Helfer
       Sandra Vidal Sandra Vidal
       查理·斯克莱特 Charlie Schlatter
       小詹姆斯·皮肯斯 James Pickens Jr.
       Jason Cairns Jason Cairns
       Danny Arroyo Danny Arroyo
       路易·曼迪勒 Louis Mandylor
       Eddie Velez Eddie Velez
       泰勒·谢里丹 Taylor Sheridan
       贾德·尼尔森 Judd Nelson
       马克·L·莱斯特 Mark L. Lester
       Dana Kaproff Dana Kaproff
       Ken Blakey Ken Blakey
       Patricia Mata Patricia Mata
       Rachel Dickson Rachel Dickson
       Anthony E. Kountz Anthony E. Kountz
  1. Video
  2. ID                                       : 1
  3. Format                                   : AVC
  4. Format/Info                              : Advanced Video Codec
  5. Format profile                           : [email protected]
  6. Format settings                          : CABAC / 4 Ref Frames
  7. Format settings, CABAC                   : Yes
  8. Format settings, Reference frames        : 4 frames
  9. Codec ID                                 : V_MPEG4/ISO/AVC
  10. Duration                                 : 1 h 26 min
  11. Bit rate mode                            : Constant
  12. Bit rate                                 : 10 000 kb/s
  13. Width                                    : 1 920 pixels
  14. Height                                   : 1 080 pixels
  15. Display aspect ratio                     : 16:9
  16. Frame rate mode                          : Constant
  17. Frame rate                               : 24.000 FPS
  18. Color space                              : YUV
  19. Chroma subsampling                       : 4:2:0
  20. Bit depth                                : 8 bits
  21. Scan type                                : Progressive
  22. Bits/(Pixel*Frame)                       : 0.201
  23. Stream size                              : 5.81 GiB (98%)
  24. Default                                  : Yes
  25. Forced                                   : No
  26. Color range                              : Limited
  27. Color primaries                          : BT.709
  28. Transfer characteristics                 : BT.709
  29. Matrix coefficients                      : BT.709
  30. Audio
  31. ID                                       : 2
  32. Format                                   : E-AC-3
  33. Format/Info                              : Enhanced AC-3
  34. Commercial name                          : Dolby Digital Plus
  35. Codec ID                                 : A_EAC3
  36. Duration                                 : 1 h 26 min
  37. Bit rate mode                            : Constant
  38. Bit rate                                 : 224 kb/s
  39. Channel(s)                               : 2 channels
  40. Channel layout                           : L R
  41. Sampling rate                            : 48.0 kHz
  42. Frame rate                               : 31.250 FPS (1536 SPF)
  43. Compression mode                         : Lossy
  44. Stream size                              : 139 MiB (2%)
  45. Language                                 : English
  46. Service kind                             : Complete Main
  47. Default                                  : Yes
  48. Forced                                   : No
  49. Text
  50. ID                                       : 3
  51. Format                                   : UTF-8
  52. Codec ID                                 : S_TEXT/UTF8
  53. Codec ID/Info                            : UTF-8 Plain Text
  54. Duration                                 : 1 h 21 min
  55. Bit rate                                 : 73 b/s
  56. Frame rate                               : 0.307 FPS
  57. Count of elements                        : 1510
  58. Stream size                              : 43.9 KiB (0%)
  59. Language                                 : English (US)
  60. Default                                  : No
  61. Forced                                   : No
复制代码











回复

使用道具 举报

懒得打字嘛,点击右侧快捷回复 【右侧内容,后台自定义】
您需要登录后才可以回帖 登录 | 立即加入

本版积分规则

Archiver|小黑屋| 蓝光电影网 |网站地图

Copyright © 2021 Comsenz Inc. Powered by 蓝光电影网

蓝光电影网

本站内容由用户自主分享和转载自互联网,转载目的在于传递更多信息,并不代表本网赞同其观点和对其真实性负责。

如有侵权、违反国家法律政策行为,请联系我们,我们会第一时间及时清除和处理!

举报反馈邮箱:[email protected]

快速回复 返回顶部 返回列表