找回密码

蓝光电影网

查看: 147|回复: 0

[2160p-WEB] 舞魂.Encore.2022.FRENCH.2160p.WEB-DL.x265.10bit.HDR.DD5.1-NOGRP 20.16GB

[复制链接]
蓝光币
1084
发表于 2023-1-8 22:27:52 | 显示全部楼层 |阅读模式


◎标  题 舞魂
◎片  名 En corps
◎年  代 2022
◎产  地 法国
◎类  别 剧情 / 笑剧
◎语  言 法语
◎上映日期 2022年3月30日
◎IMDb评分 7.3/10 (1230人评价)
◎IMDb链接 https://www.imdb.com/title/tt13531468/
◎豆瓣链接 https://movie.douban.com/subject/35358852/
◎片  长 分钟
◎导  演 塞德里克·克拉皮斯
◎编  剧 塞德里克·克拉皮斯
       圣地亚哥·阿米戈雷纳
◎演  员 Marion Barbeau
       皮奥·马麦
       弗朗索瓦·西维尔
       Hofesh Shechter
       德尼·波达利德斯
       穆里尔·罗宾
       索海拉·雅各布
       Mehdi Baki
       艾莉西亚·乔达诺
       Robinson Cassarino
       戴米恩·查潘
       Marion Gautier de Charnacé
       Marilou Aussilloux
       玛蒂尔德·瓦尔尼耶
       Florence Clerc
       Louis Lancien
       Agathe Berman
       齐达内·苏阿内
       Fanny Sage
       Kevin Garnichat
       Jade Phan-Gia
◎简  介
  Elise, a very promising classical dancer, is injured during a performance at 26 years old. Although she's told she will no longer be able to dance, she will try to find a new direction in contemporary dance.
  1. Video
  2. ID                                       : 1
  3. Format                                   : HEVC
  4. Format/Info                              : High Efficiency Video Coding
  5. Format profile                           : Main [email protected][email protected]
  6. HDR format                               : SMPTE ST 2086, HDR10 compatible
  7. Codec ID                                 : V_MPEGH/ISO/HEVC
  8. Duration                                 : 1 h 57 min
  9. Bit rate                                 : 24.2 Mb/s
  10. Width                                    : 3 832 pixels
  11. Height                                   : 2 072 pixels
  12. Display aspect ratio                     : 1.85:1
  13. Frame rate mode                          : Constant
  14. Frame rate                               : 24.000 FPS
  15. Color space                              : YUV
  16. Chroma subsampling                       : 4:2:0 (Type 2)
  17. Bit depth                                : 10 bits
  18. Bits/(Pixel*Frame)                       : 0.127
  19. Stream size                              : 19.8 GiB (98%)
  20. Default                                  : Yes
  21. Forced                                   : No
  22. Color range                              : Limited
  23. Color primaries                          : BT.2020
  24. Transfer characteristics                 : PQ
  25. Matrix coefficients                      : BT.2020 non-constant
  26. Mastering display color primaries        : Display P3
  27. Mastering display luminance              : min: 0.0050 cd/m2, max: 1000 cd/m2
  28. Maximum Content Light Level              : 221 cd/m2
  29. Maximum Frame-Average Light Level        : 44 cd/m2
  30. Audio
  31. ID                                       : 2
  32. Format                                   : AC-3
  33. Format/Info                              : Audio Coding 3
  34. Commercial name                          : Dolby Digital
  35. Codec ID                                 : A_AC3
  36. Duration                                 : 1 h 57 min
  37. Bit rate mode                            : Constant
  38. Bit rate                                 : 384 kb/s
  39. Channel(s)                               : 6 channels
  40. Channel layout                           : L R C LFE Ls Rs
  41. Sampling rate                            : 48.0 kHz
  42. Frame rate                               : 31.250 FPS (1536 SPF)
  43. Compression mode                         : Lossy
  44. Stream size                              : 322 MiB (2%)
  45. Title                                    : French
  46. Language                                 : French
  47. Service kind                             : Complete Main
  48. Default                                  : Yes
  49. Forced                                   : No
  50. Text #1
  51. ID                                       : 3
  52. Format                                   : UTF-8
  53. Codec ID                                 : S_TEXT/UTF8
  54. Codec ID/Info                            : UTF-8 Plain Text
  55. Duration                                 : 1 h 40 min
  56. Bit rate                                 : 54 b/s
  57. Frame rate                               : 0.213 FPS
  58. Count of elements                        : 1286
  59. Stream size                              : 40.3 KiB (0%)
  60. Language                                 : English
  61. Default                                  : Yes
  62. Forced                                   : No
  63. Text #2
  64. ID                                       : 4
  65. Format                                   : UTF-8
  66. Codec ID                                 : S_TEXT/UTF8
  67. Codec ID/Info                            : UTF-8 Plain Text
  68. Duration                                 : 1 h 22 min
  69. Bit rate                                 : 5 b/s
  70. Frame rate                               : 0.026 FPS
  71. Count of elements                        : 131
  72. Stream size                              : 3.41 KiB (0%)
  73. Title                                    : French (forced)
  74. Language                                 : French (FR)
  75. Default                                  : No
  76. Forced                                   : Yes
  77. Menu
  78. 00:00:00.000                             : en:Chapter 01
  79. 00:11:19.625                             : en:Chapter 02
  80. 00:19:45.708                             : en:Chapter 03
  81. 00:28:24.458                             : en:Chapter 04
  82. 00:40:01.000                             : en:Chapter 05
  83. 00:49:17.083                             : en:Chapter 06
  84. 01:00:20.166                             : en:Chapter 07
  85. 01:11:10.291                             : en:Chapter 08
  86. 01:19:22.916                             : en:Chapter 09
  87. 01:28:50.708                             : en:Chapter 10
  88. 01:39:42.208                             : en:Chapter 11
复制代码











回复

使用道具 举报

懒得打字嘛,点击右侧快捷回复 【右侧内容,后台自定义】
您需要登录后才可以回帖 登录 | 立即加入

本版积分规则

Archiver|小黑屋| 蓝光电影网 |网站地图

Copyright © 2021 Comsenz Inc. Powered by 蓝光电影网

蓝光电影网

本站内容由用户自主分享和转载自互联网,转载目的在于传递更多信息,并不代表本网赞同其观点和对其真实性负责。

如有侵权、违反国家法律政策行为,请联系我们,我们会第一时间及时清除和处理!

举报反馈邮箱:[email protected]

快速回复 返回顶部 返回列表