找回密码

蓝光电影网

查看: 103|回复: 3

[2160p-WEB] 忠诚.Devotion.2022.2160p.WEB-DL.DDP5.1.Atmos.DV.MKV.x265-DVSUX 24.43GB

[复制链接]
蓝光币
1084
发表于 2023-1-8 22:27:56 | 显示全部楼层 |阅读模式


◎标  题 虔诚
◎译  名 虔诚:豪杰主义、友谊、牺牲的史诗故事 / 决战38度线(台) / Devotion: An Epic Story of Heroism /  Friendship /  and Sacrific
◎片  名 Devotion
◎年  代 2022
◎产  地 美国
◎类  别 剧情 / 行动 / 战争
◎语  言 英语 / 韩语
◎上映日期 2022-09-12(多伦多电影节) / 2022-10-28(美国)
◎IMDb评分 6.9/10 (941人评价)
◎IMDb链接 https://www.imdb.com/title/tt7693316/
◎豆瓣链接 https://movie.douban.com/subject/30163678/
◎片  长 138分钟
◎导  演 J·D·迪拉德 J.D. Dillard
◎编  剧 杰克·克莱恩 Jake Crane
       乔纳森·斯图尔特 Jonathan Stewart
       亚当·马科斯 Adam Makos
◎演  员 乔纳森·梅杰斯 Jonathan Majors
       格伦·鲍威尔 Glen Powell
       赛琳达·斯万 Serinda Swan
       托马斯·萨多斯基 Thomas Sadoski
       约瑟夫·克罗斯 Joseph Cross
       乔·乔纳斯 Joe Jonas
       达伦·卡加索夫 Daren Kagasoff
       斯宾瑟·内维尔 Spencer Neville
       马特·雷迪 Matt Riedy
       尼克·哈格罗弗 Nick Hargrove
       克里斯蒂娜·杰克逊 Christina Jackson
       阿德丁博·汤玛斯 Adetinpo Thomas
       迪安·丹顿 Dean Denton
       巴迪·沃特金斯 Buddy Watkins
       Todd Brown Todd Brown
       Julie Kessler Julie Kessler
       埃里克·梅塞施密特 Erik Messerschmidt
       威恩·托马斯 Wynn Thomas
◎简  介
  Black Label Media将把2015年亚当·马库斯的著作《虔诚:豪杰主义、友谊、牺牲的史诗故事》(Devotion: An Epic Story of Heroism, Friendship, and Sacrifice)搬上大银幕。小说围绕两名朝鲜战争的飞翔员展开,其中一位来自敷裕的英格兰家庭,另一个是来自密西西比黑人家庭。两人成为美国历史上顶尖的飞翔员。格伦·鲍威尔([隐藏人物])将参演影片。本片由杰克·克兰、乔纳森·斯图尔特打造剧本。
  1. Video
  2. ID                                       : 1
  3. Format                                   : HEVC
  4. Format/Info                              : High Efficiency Video Coding
  5. Format profile                           : Main [email protected]@High
  6. HDR format                               : Dolby Vision, Version 1.0, dvhe.05.06, BL+RPU
  7. Codec ID                                 : V_MPEGH/ISO/HEVC
  8. Duration                                 : 2 h 19 min
  9. Bit rate                                 : 24.4 Mb/s
  10. Width                                    : 3 836 pixels
  11. Height                                   : 1 744 pixels
  12. Display aspect ratio                     : 2.2:1
  13. Frame rate mode                          : Constant
  14. Frame rate                               : 23.976 (24000/1001) FPS
  15. Color space                              : YUV
  16. Chroma subsampling                       : 4:2:0
  17. Bit depth                                : 10 bits
  18. Bits/(Pixel*Frame)                       : 0.152
  19. Stream size                              : 23.7 GiB (97%)
  20. Language                                 : English
  21. Default                                  : Yes
  22. Forced                                   : No
  23. Audio
  24. ID                                       : 2
  25. Format                                   : E-AC-3 JOC
  26. Format/Info                              : Enhanced AC-3 with Joint Object Coding
  27. Commercial name                          : Dolby Digital Plus with Dolby Atmos
  28. Codec ID                                 : A_EAC3
  29. Duration                                 : 2 h 19 min
  30. Bit rate mode                            : Constant
  31. Bit rate                                 : 768 kb/s
  32. Channel(s)                               : 6 channels
  33. Channel layout                           : L R C LFE Ls Rs
  34. Sampling rate                            : 48.0 kHz
  35. Frame rate                               : 31.250 FPS (1536 SPF)
  36. Compression mode                         : Lossy
  37. Stream size                              : 764 MiB (3%)
  38. Title                                    : English
  39. Language                                 : English
  40. Service kind                             : Complete Main
  41. Default                                  : Yes
  42. Forced                                   : No
  43. Complexity index                         : 16
  44. Number of dynamic objects                : 15
  45. Bed channel count                        : 1 channel
  46. Bed channel configuration                : LFE
  47. Text #1
  48. ID                                       : 3
  49. Format                                   : UTF-8
  50. Codec ID                                 : S_TEXT/UTF8
  51. Codec ID/Info                            : UTF-8 Plain Text
  52. Duration                                 : 2 h 6 min
  53. Bit rate                                 : 46 b/s
  54. Frame rate                               : 0.188 FPS
  55. Count of elements                        : 1424
  56. Stream size                              : 43.4 KiB (0%)
  57. Title                                    : English
  58. Language                                 : English
  59. Default                                  : No
  60. Forced                                   : No
  61. Text #2
  62. ID                                       : 4
  63. Format                                   : UTF-8
  64. Codec ID                                 : S_TEXT/UTF8
  65. Codec ID/Info                            : UTF-8 Plain Text
  66. Duration                                 : 2 h 7 min
  67. Bit rate                                 : 53 b/s
  68. Frame rate                               : 0.218 FPS
  69. Count of elements                        : 1666
  70. Stream size                              : 49.8 KiB (0%)
  71. Title                                    : English SDH
  72. Language                                 : English
  73. Default                                  : No
  74. Forced                                   : No
  75. Menu
  76. 00:00:00.000                             : en:Chapter 01
  77. 00:05:55.146                             : en:Chapter 02
  78. 00:16:04.631                             : en:Chapter 03
  79. 00:24:10.116                             : en:Chapter 04
  80. 00:29:07.956                             : en:Chapter 05
  81. 00:40:14.414                             : en:Chapter 06
  82. 00:49:49.072                             : en:Chapter 07
  83. 00:56:15.709                             : en:Chapter 08
  84. 01:06:05.507                             : en:Chapter 09
  85. 01:11:36.171                             : en:Chapter 10
  86. 01:16:36.721                             : en:Chapter 11
  87. 01:24:02.083                             : en:Chapter 12
  88. 01:34:06.563                             : en:Chapter 13
  89. 01:42:00.412                             : en:Chapter 14
  90. 01:53:06.828                             : en:Chapter 15
  91. 02:02:53.248                             : en:Chapter 16
  92. 02:09:33.106                             : en:Chapter 17
复制代码











回复

使用道具 举报

蓝光币
2
发表于 2023-1-8 22:49:23 | 显示全部楼层
楼主发贴辛苦了,谢谢楼主分享!我觉得蓝光电影网是注册对了!
回复 支持 反对

使用道具 举报

蓝光币
13
发表于 2023-1-9 10:43:32 | 显示全部楼层

其实我一直觉得楼主的品味不错!呵呵!蓝光电影网太棒了!
回复 支持 反对

使用道具 举报

蓝光币
2267
发表于 2023-1-9 11:34:31 | 显示全部楼层

楼主太厉害了!楼主,电影应该很好看我觉得蓝光电影网真是个好地方!
回复 支持 反对

使用道具 举报

懒得打字嘛,点击右侧快捷回复 【右侧内容,后台自定义】
您需要登录后才可以回帖 登录 | 立即加入

本版积分规则

Archiver|小黑屋| 蓝光电影网 |网站地图

Copyright © 2021 Comsenz Inc. Powered by 蓝光电影网

蓝光电影网

本站内容由用户自主分享和转载自互联网,转载目的在于传递更多信息,并不代表本网赞同其观点和对其真实性负责。

如有侵权、违反国家法律政策行为,请联系我们,我们会第一时间及时清除和处理!

举报反馈邮箱:[email protected]

快速回复 返回顶部 返回列表