找回密码

蓝光电影网

查看: 24|回复: 0

[喜剧] 毒药与老妇.Arsenic.and.Old.Lace.1944.720p.BluRay.x264-USURY 8.42GB

[复制链接]
蓝光币
1084
发表于 2023-1-10 16:08:46 | 显示全部楼层 |阅读模式


◎标  题 毒药与老妇
◎译  名 疯狂世家(港) / 砒霜与烈酒
◎片  名 Arsenic and Old Lace
◎年  代 1944
◎产  地 美国
◎类  别 笑剧 / 恋爱 / 惊悚 / 犯罪
◎语  言 英语 / 德语
◎上映日期 1944-09-01
◎IMDb评分 7.9/10 (71756人评价)
◎IMDb链接 https://www.imdb.com/title/tt0036613/
◎豆瓣评分 7.5/10 (2062人评价)
◎豆瓣链接 https://movie.douban.com/subject/1299412/
◎片  长 118 分钟
◎导  演 弗兰克·卡普拉 Frank Capra
◎编  剧 朱利叶斯·J·爱泼斯坦 Julius J. Epstein
       菲利普·G·爱泼斯坦 Philip G. Epstein
       约瑟夫·凯塞林 Joseph Kesselring
◎演  员 加里·格兰特 Cary Grant
       普瑞丝西拉·兰恩 Priscilla Lane
       雷蒙德·马西 Raymond Massey
       杰克·卡森 Jack Carson
       爱德华·艾沃瑞特·霍顿 Edward Everett Horton
       Sol Gorss Sol Gorss
       Herbert Gunn Herbert Gunn
       约瑟芬·赫尔 Josephine Hull
       查尔斯·莱恩 Charles Lane
       李·费尔普斯 Lee Phelps
       格兰特·米切尔 Grant Mitchell
       Edward McWade Edward McWade
       Garry Owen Garry Owen
       Spec O'Donnell Spec O'Donnell
       Vaughan Glaser Vaughan Glaser
       詹姆斯·格利森 James Gleason
       斯潘塞·查特斯 Spencer Charters
       Edward McNamara Edward McNamara
       李奥·怀特 Leo White
       约翰·里德格利 John Ridgely
       汉克·曼 Hank Mann
       吉恩·阿黛尔 Jean Adair
       约翰·亚历山大 John Alexander
       Chester Clute Chester Clute
       彼得·洛 Peter Lorre
       杰克·L·华纳 Jack L. Warner
       弗兰克·卡普拉 Frank Capra
       马克思·斯坦纳 Max Steiner
       索尔·波利托 Sol Polito
       丹尼尔·曼戴尔 Daniel Mandell
       麦克斯·帕克尔 Max Parker
       奥里-凯利 Orry-Kelly
       派尔可·韦斯特莫 Perc Westmore
       George Bau George Bau
       拉塞尔·桑德斯 Russell Saunders
◎简  介
  在纽约布鲁克林区的公寓里,住着两名概况看起来非常和善慈爱的老太太,不意她们竟用自己酿制的鸩酒杀了来访的一些孤独老头。此奥秘让她们的侄儿加里·格兰特偶然发现,该怎样善后?                                    
                                改编自百老汇舞台名剧,由名导演弗兰克·卡普拉于1941年拍成电影。因适逢二战起头,生怕本片内容对世道民气有不良影响,故一向迟延到大战前期的1944年才正式公映。实在这只是一部构想奇异的黑色笑剧,自己并无什么毒性。本片在喜趣的背后道出了老年人乏人照顾的凄凉晚景:灭亡是他们的最大摆脱,而杀人竟成为一种好心的暗示。故事主题颇具检讨意义。
  1. Video
  2. ID                                       : 1
  3. Format                                   : AVC
  4. Format/Info                              : Advanced Video Codec
  5. Format profile                           : [email protected]
  6. Format settings                          : CABAC / 11 Ref Frames
  7. Format settings, CABAC                   : Yes
  8. Format settings, Reference frames        : 11 frames
  9. Codec ID                                 : V_MPEG4/ISO/AVC
  10. Duration                                 : 1 h 58 min
  11. Bit rate                                 : 9 421 kb/s
  12. Width                                    : 986 pixels
  13. Height                                   : 720 pixels
  14. Display aspect ratio                     : 4:3
  15. Frame rate mode                          : Constant
  16. Frame rate                               : 23.976 (24000/1001) FPS
  17. Color space                              : YUV
  18. Chroma subsampling                       : 4:2:0
  19. Bit depth                                : 8 bits
  20. Scan type                                : Progressive
  21. Bits/(Pixel*Frame)                       : 0.554
  22. Stream size                              : 7.78 GiB (92%)
  23. Writing library                          : x264 core 164 r3101 b093bbe
  24. Encoding settings                        : cabac=1 / ref=11 / deblock=1:-3:-3 / analyse=0x3:0x133 / me=umh / subme=10 / psy=1 / psy_rd=1.00:0.15 / mixed_ref=1 / me_range=24 / chroma_me=1 / trellis=2 / 8x8dct=1 / cqm=0 / deadzone=21,11 / fast_pskip=1 / chroma_qp_offset=-3 / threads=18 / lookahead_threads=3 / sliced_threads=0 / nr=0 / decimate=1 / interlaced=0 / bluray_compat=0 / constrained_intra=0 / bframes=8 / b_pyramid=2 / b_adapt=2 / b_bias=0 / direct=3 / weightb=1 / open_gop=0 / weightp=2 / keyint=250 / keyint_min=23 / scenecut=40 / intra_refresh=0 / rc_lookahead=60 / rc=crf / mbtree=1 / crf=17.0 / qcomp=0.60 / qpmin=0 / qpmax=69 / qpstep=4 / ip_ratio=1.40 / aq=3:0.50
  25. Language                                 : English
  26. Default                                  : Yes
  27. Forced                                   : No
  28. Audio #1
  29. ID                                       : 2
  30. Format                                   : FLAC
  31. Format/Info                              : Free Lossless Audio Codec
  32. Codec ID                                 : A_FLAC
  33. Duration                                 : 1 h 58 min
  34. Bit rate mode                            : Variable
  35. Bit rate                                 : 687 kb/s
  36. Channel(s)                               : 1 channel
  37. Channel layout                           : C
  38. Sampling rate                            : 48.0 kHz
  39. Frame rate                               : 11.719 FPS (4096 SPF)
  40. Bit depth                                : 24 bits
  41. Compression mode                         : Lossless
  42. Stream size                              : 581 MiB (7%)
  43. Writing library                          : libFLAC 1.2.1 (UTC 2007-09-17)
  44. Language                                 : English
  45. Default                                  : Yes
  46. Forced                                   : No
  47. Audio #2
  48. ID                                       : 3
  49. Format                                   : AAC LC
  50. Format/Info                              : Advanced Audio Codec Low Complexity
  51. Codec ID                                 : A_AAC-2
  52. Duration                                 : 1 h 58 min
  53. Bit rate                                 : 64.0 kb/s
  54. Channel(s)                               : 1 channel
  55. Channel layout                           : C
  56. Sampling rate                            : 48.0 kHz
  57. Frame rate                               : 46.875 FPS (1024 SPF)
  58. Compression mode                         : Lossy
  59. Delay relative to video                  : 9 ms
  60. Stream size                              : 54.1 MiB (1%)
  61. Title                                    : English Commentary by Charles Dennis
  62. Language                                 : English
  63. Default                                  : No
  64. Forced                                   : No
  65. Text #1
  66. ID                                       : 4
  67. Format                                   : UTF-8
  68. Codec ID                                 : S_TEXT/UTF8
  69. Codec ID/Info                            : UTF-8 Plain Text
  70. Duration                                 : 1 h 55 min
  71. Bit rate                                 : 99 b/s
  72. Count of elements                        : 2232
  73. Stream size                              : 84.9 KiB (0%)
  74. Title                                    : English
  75. Language                                 : English
  76. Default                                  : No
  77. Forced                                   : No
  78. Text #2
  79. ID                                       : 5
  80. Format                                   : UTF-8
  81. Codec ID                                 : S_TEXT/UTF8
  82. Codec ID/Info                            : UTF-8 Plain Text
  83. Duration                                 : 1 h 55 min
  84. Bit rate                                 : 105 b/s
  85. Count of elements                        : 2360
  86. Stream size                              : 89.2 KiB (0%)
  87. Title                                    : English SDH
  88. Language                                 : English
  89. Default                                  : No
  90. Forced                                   : No
  91. Text #3
  92. ID                                       : 6
  93. Format                                   : PGS
  94. Muxing mode                              : zlib
  95. Codec ID                                 : S_HDMV/PGS
  96. Codec ID/Info                            : Picture based subtitle format used on BDs/HD-DVDs
  97. Duration                                 : 1 h 55 min
  98. Bit rate                                 : 14.7 kb/s
  99. Count of elements                        : 4721
  100. Stream size                              : 12.2 MiB (0%)
  101. Title                                    : English SDH
  102. Language                                 : English
  103. Default                                  : No
  104. Forced                                   : No
  105. Menu
  106. 00:00:00.000                             : en:00:00:00.000
  107. 00:05:25.325                             : en:00:05:25.325
  108. 00:14:06.054                             : en:00:14:06.054
  109. 00:18:07.003                             : en:00:18:07.003
  110. 00:26:34.760                             : en:00:26:34.760
  111. 00:32:58.101                             : en:00:32:58.101
  112. 00:39:15.144                             : en:00:39:15.144
  113. 00:46:06.472                             : en:00:46:06.472
  114. 00:52:35.152                             : en:00:52:35.152
  115. 01:02:21.655                             : en:01:02:21.655
  116. 01:11:45.384                             : en:01:11:45.384
  117. 01:16:32.254                             : en:01:16:32.254
  118. 01:20:03.799                             : en:01:20:03.799
  119. 01:24:51.878                             : en:01:24:51.878
  120. 01:33:50.500                             : en:01:33:50.500
  121. 01:43:54.937                             : en:01:43:54.937
  122. 01:53:29.011                             : en:01:53:29.011
复制代码









回复

使用道具 举报

懒得打字嘛,点击右侧快捷回复 【右侧内容,后台自定义】
您需要登录后才可以回帖 登录 | 立即加入

本版积分规则

Archiver|小黑屋| 蓝光电影网 |网站地图

Copyright © 2021 Comsenz Inc. Powered by 蓝光电影网

蓝光电影网

本站内容由用户自主分享和转载自互联网,转载目的在于传递更多信息,并不代表本网赞同其观点和对其真实性负责。

如有侵权、违反国家法律政策行为,请联系我们,我们会第一时间及时清除和处理!

举报反馈邮箱:[email protected]

快速回复 返回顶部 返回列表