找回密码

蓝光电影网

查看: 86|回复: 1

[2160p-WEB] 沃尔夫冈[中文字幕].Wolfgang.2021.2160p.WEB-DL.DDP5.1.DV.MKV.x265-FLUX 12.00GB

[复制链接]
蓝光币
1082
发表于 2023-1-10 16:18:31 | 显示全部楼层 |阅读模式


◎标  题 沃尔夫冈
◎译  名 名厨沃夫甘(台) / 美味传奇(港)
◎片  名 Wolfgang
◎年  代 2021
◎产  地 美国
◎上映日期 2021-06-25(美国)
◎IMDb评分 6.9/10 (371人评价)
◎IMDb链接 https://www.imdb.com/title/tt11146690/
◎豆瓣评分 7.2/10 (224人评价)
◎豆瓣链接 https://movie.douban.com/subject/35410771/
◎片  长 78分钟
◎导  演 大卫·贾柏 David Gelb
◎编  剧 布莱恩·麦金恩 Brian McGinn
◎演  员 沃尔夫冈·帕克 Wolfgang Puck
◎简  介
  An intimate portrait of the life and work of the original "celebrity chef," Wolfgang Puck.
  1. Video
  2. ID                                       : 1
  3. Format                                   : HEVC
  4. Format/Info                              : High Efficiency Video Coding
  5. Format profile                           : Main [email protected]@Main
  6. HDR format                               : Dolby Vision, Version 1.0, dvhe.05.06, BL+RPU
  7. Codec ID                                 : V_MPEGH/ISO/HEVC
  8. Duration                                 : 1 h 18 min
  9. Bit rate                                 : 21.7 Mb/s
  10. Width                                    : 3 840 pixels
  11. Height                                   : 2 160 pixels
  12. Display aspect ratio                     : 16:9
  13. Frame rate mode                          : Constant
  14. Frame rate                               : 23.976 (24000/1001) FPS
  15. Color space                              : YUV
  16. Chroma subsampling                       : 4:2:0 (Type 0)
  17. Bit depth                                : 10 bits
  18. Bits/(Pixel*Frame)                       : 0.109
  19. Stream size                              : 11.9 GiB (99%)
  20. Default                                  : Yes
  21. Forced                                   : No
  22. Color range                              : Full
  23. Audio
  24. ID                                       : 2
  25. Format                                   : E-AC-3
  26. Format/Info                              : Enhanced AC-3
  27. Commercial name                          : Dolby Digital Plus
  28. Codec ID                                 : A_EAC3
  29. Duration                                 : 1 h 18 min
  30. Bit rate mode                            : Constant
  31. Bit rate                                 : 256 kb/s
  32. Channel(s)                               : 6 channels
  33. Channel layout                           : L R C LFE Ls Rs
  34. Sampling rate                            : 48.0 kHz
  35. Frame rate                               : 31.250 FPS (1536 SPF)
  36. Compression mode                         : Lossy
  37. Stream size                              : 143 MiB (1%)
  38. Language                                 : English
  39. Service kind                             : Complete Main
  40. Default                                  : Yes
  41. Forced                                   : No
  42. Text #1
  43. ID                                       : 3
  44. Format                                   : UTF-8
  45. Codec ID                                 : S_TEXT/UTF8
  46. Codec ID/Info                            : UTF-8 Plain Text
  47. Duration                                 : 1 h 15 min
  48. Bit rate                                 : 82 b/s
  49. Frame rate                               : 0.204 FPS
  50. Count of elements                        : 922
  51. Stream size                              : 45.6 KiB (0%)
  52. Language                                 : English
  53. Default                                  : No
  54. Forced                                   : No
  55. Text #2
  56. ID                                       : 4
  57. Format                                   : UTF-8
  58. Codec ID                                 : S_TEXT/UTF8
  59. Codec ID/Info                            : UTF-8 Plain Text
  60. Duration                                 : 1 h 16 min
  61. Bit rate                                 : 83 b/s
  62. Frame rate                               : 0.218 FPS
  63. Count of elements                        : 998
  64. Stream size                              : 46.6 KiB (0%)
  65. Title                                    : SDH
  66. Language                                 : English
  67. Default                                  : No
  68. Forced                                   : No
  69. Text #3
  70. ID                                       : 5
  71. Format                                   : UTF-8
  72. Codec ID                                 : S_TEXT/UTF8
  73. Codec ID/Info                            : UTF-8 Plain Text
  74. Duration                                 : 1 h 17 min
  75. Bit rate                                 : 59 b/s
  76. Frame rate                               : 0.213 FPS
  77. Count of elements                        : 991
  78. Stream size                              : 33.9 KiB (0%)
  79. Title                                    : Chinese (Hong Kong)
  80. Language                                 : Chinese
  81. Default                                  : No
  82. Forced                                   : No
  83. Text #4
  84. ID                                       : 6
  85. Format                                   : UTF-8
  86. Codec ID                                 : S_TEXT/UTF8
  87. Codec ID/Info                            : UTF-8 Plain Text
  88. Duration                                 : 1 h 17 min
  89. Bit rate                                 : 59 b/s
  90. Frame rate                               : 0.213 FPS
  91. Count of elements                        : 990
  92. Stream size                              : 33.9 KiB (0%)
  93. Title                                    : Chinese (Simplified)
  94. Language                                 : Chinese
  95. Default                                  : No
  96. Forced                                   : No
  97. Text #5
  98. ID                                       : 7
  99. Format                                   : UTF-8
  100. Codec ID                                 : S_TEXT/UTF8
  101. Codec ID/Info                            : UTF-8 Plain Text
  102. Duration                                 : 1 h 17 min
  103. Bit rate                                 : 71 b/s
  104. Frame rate                               : 0.204 FPS
  105. Count of elements                        : 948
  106. Stream size                              : 40.4 KiB (0%)
  107. Language                                 : Danish
  108. Default                                  : No
  109. Forced                                   : No
  110. Text #6
  111. ID                                       : 8
  112. Format                                   : UTF-8
  113. Codec ID                                 : S_TEXT/UTF8
  114. Codec ID/Info                            : UTF-8 Plain Text
  115. Duration                                 : 1 h 17 min
  116. Bit rate                                 : 76 b/s
  117. Frame rate                               : 0.193 FPS
  118. Count of elements                        : 901
  119. Stream size                              : 43.7 KiB (0%)
  120. Language                                 : German
  121. Default                                  : No
  122. Forced                                   : No
  123. Text #7
  124. ID                                       : 9
  125. Format                                   : UTF-8
  126. Codec ID                                 : S_TEXT/UTF8
  127. Codec ID/Info                            : UTF-8 Plain Text
  128. Duration                                 : 1 h 17 min
  129. Bit rate                                 : 68 b/s
  130. Frame rate                               : 0.206 FPS
  131. Count of elements                        : 961
  132. Stream size                              : 39.1 KiB (0%)
  133. Title                                    : Espa?ol
  134. Language                                 : Spanish
  135. Default                                  : No
  136. Forced                                   : No
  137. Text #8
  138. ID                                       : 10
  139. Format                                   : UTF-8
  140. Codec ID                                 : S_TEXT/UTF8
  141. Codec ID/Info                            : UTF-8 Plain Text
  142. Duration                                 : 1 h 17 min
  143. Bit rate                                 : 81 b/s
  144. Frame rate                               : 0.205 FPS
  145. Count of elements                        : 951
  146. Stream size                              : 46.1 KiB (0%)
  147. Title                                    : Espa?ol (Latinoamericano)
  148. Language                                 : Spanish
  149. Default                                  : No
  150. Forced                                   : No
  151. Text #9
  152. ID                                       : 11
  153. Format                                   : UTF-8
  154. Codec ID                                 : S_TEXT/UTF8
  155. Codec ID/Info                            : UTF-8 Plain Text
  156. Duration                                 : 1 h 17 min
  157. Bit rate                                 : 80 b/s
  158. Frame rate                               : 0.216 FPS
  159. Count of elements                        : 1006
  160. Stream size                              : 45.5 KiB (0%)
  161. Language                                 : French
  162. Default                                  : No
  163. Forced                                   : No
  164. Text #10
  165. ID                                       : 12
  166. Format                                   : UTF-8
  167. Codec ID                                 : S_TEXT/UTF8
  168. Codec ID/Info                            : UTF-8 Plain Text
  169. Duration                                 : 1 h 17 min
  170. Bit rate                                 : 74 b/s
  171. Frame rate                               : 0.206 FPS
  172. Count of elements                        : 954
  173. Stream size                              : 42.3 KiB (0%)
  174. Language                                 : Italian
  175. Default                                  : No
  176. Forced                                   : No
  177. Text #11
  178. ID                                       : 13
  179. Format                                   : UTF-8
  180. Codec ID                                 : S_TEXT/UTF8
  181. Codec ID/Info                            : UTF-8 Plain Text
  182. Duration                                 : 1 h 16 min
  183. Bit rate                                 : 68 b/s
  184. Frame rate                               : 0.222 FPS
  185. Count of elements                        : 1014
  186. Stream size                              : 38.2 KiB (0%)
  187. Language                                 : Japanese
  188. Default                                  : No
  189. Forced                                   : No
  190. Text #12
  191. ID                                       : 14
  192. Format                                   : UTF-8
  193. Codec ID                                 : S_TEXT/UTF8
  194. Codec ID/Info                            : UTF-8 Plain Text
  195. Duration                                 : 1 h 17 min
  196. Bit rate                                 : 89 b/s
  197. Frame rate                               : 0.221 FPS
  198. Count of elements                        : 1030
  199. Stream size                              : 50.7 KiB (0%)
  200. Language                                 : Korean
  201. Default                                  : No
  202. Forced                                   : No
  203. Text #13
  204. ID                                       : 15
  205. Format                                   : UTF-8
  206. Codec ID                                 : S_TEXT/UTF8
  207. Codec ID/Info                            : UTF-8 Plain Text
  208. Duration                                 : 1 h 17 min
  209. Bit rate                                 : 72 b/s
  210. Frame rate                               : 0.204 FPS
  211. Count of elements                        : 950
  212. Stream size                              : 41.1 KiB (0%)
  213. Language                                 : Dutch
  214. Default                                  : No
  215. Forced                                   : No
  216. Text #14
  217. ID                                       : 16
  218. Format                                   : UTF-8
  219. Codec ID                                 : S_TEXT/UTF8
  220. Codec ID/Info                            : UTF-8 Plain Text
  221. Duration                                 : 1 h 17 min
  222. Bit rate                                 : 67 b/s
  223. Frame rate                               : 0.203 FPS
  224. Count of elements                        : 946
  225. Stream size                              : 38.5 KiB (0%)
  226. Language                                 : Norwegian
  227. Default                                  : No
  228. Forced                                   : No
  229. Text #15
  230. ID                                       : 17
  231. Format                                   : UTF-8
  232. Codec ID                                 : S_TEXT/UTF8
  233. Codec ID/Info                            : UTF-8 Plain Text
  234. Duration                                 : 1 h 17 min
  235. Bit rate                                 : 63 b/s
  236. Frame rate                               : 0.202 FPS
  237. Count of elements                        : 940
  238. Stream size                              : 36.2 KiB (0%)
  239. Language                                 : Polish
  240. Default                                  : No
  241. Forced                                   : No
  242. Text #16
  243. ID                                       : 18
  244. Format                                   : UTF-8
  245. Codec ID                                 : S_TEXT/UTF8
  246. Codec ID/Info                            : UTF-8 Plain Text
  247. Duration                                 : 1 h 17 min
  248. Bit rate                                 : 75 b/s
  249. Frame rate                               : 0.204 FPS
  250. Count of elements                        : 951
  251. Stream size                              : 43.1 KiB (0%)
  252. Title                                    : Português
  253. Language                                 : Portuguese
  254. Default                                  : No
  255. Forced                                   : No
  256. Text #17
  257. ID                                       : 19
  258. Format                                   : UTF-8
  259. Codec ID                                 : S_TEXT/UTF8
  260. Codec ID/Info                            : UTF-8 Plain Text
  261. Duration                                 : 1 h 17 min
  262. Bit rate                                 : 73 b/s
  263. Frame rate                               : 0.204 FPS
  264. Count of elements                        : 948
  265. Stream size                              : 41.7 KiB (0%)
  266. Title                                    : Português (Brasil)
  267. Language                                 : Portuguese
  268. Default                                  : No
  269. Forced                                   : No
  270. Text #18
  271. ID                                       : 20
  272. Format                                   : UTF-8
  273. Codec ID                                 : S_TEXT/UTF8
  274. Codec ID/Info                            : UTF-8 Plain Text
  275. Duration                                 : 1 h 17 min
  276. Bit rate                                 : 71 b/s
  277. Frame rate                               : 0.205 FPS
  278. Count of elements                        : 955
  279. Stream size                              : 40.4 KiB (0%)
  280. Language                                 : Finnish
  281. Default                                  : No
  282. Forced                                   : No
  283. Text #19
  284. ID                                       : 21
  285. Format                                   : UTF-8
  286. Codec ID                                 : S_TEXT/UTF8
  287. Codec ID/Info                            : UTF-8 Plain Text
  288. Duration                                 : 1 h 17 min
  289. Bit rate                                 : 71 b/s
  290. Frame rate                               : 0.206 FPS
  291. Count of elements                        : 958
  292. Stream size                              : 40.5 KiB (0%)
  293. Language                                 : Swedish
  294. Default                                  : No
  295. Forced                                   : No
  296. Menu
  297. 01:16:38.390                             : en:Credits
复制代码











回复

使用道具 举报

蓝光币
13
发表于 2023-1-10 23:47:03 | 显示全部楼层
谢谢分享谢谢
回复 支持 反对

使用道具 举报

懒得打字嘛,点击右侧快捷回复 【右侧内容,后台自定义】
您需要登录后才可以回帖 登录 | 立即加入

本版积分规则

Archiver|小黑屋| 蓝光电影网 |网站地图

Copyright © 2021 Comsenz Inc. Powered by 蓝光电影网

蓝光电影网

本站内容由用户自主分享和转载自互联网,转载目的在于传递更多信息,并不代表本网赞同其观点和对其真实性负责。

如有侵权、违反国家法律政策行为,请联系我们,我们会第一时间及时清除和处理!

举报反馈邮箱:[email protected]

快速回复 返回顶部 返回列表