找回密码

蓝光电影网

查看: 361|回复: 12

[2160p-WEB] 沃尔夫冈[中文字幕].Wolfgang.2021.2160p.WEB-DL.DDP5.1.DV.MP4.x265-DVSUX 12.00GB

[复制链接]
蓝光币
1084
发表于 2023-1-10 16:18:32 | 显示全部楼层 |阅读模式


◎标  题 沃尔夫冈
◎译  名 名厨沃夫甘(台) / 美味传奇(港)
◎片  名 Wolfgang
◎年  代 2021
◎产  地 美国
◎上映日期 2021-06-25(美国)
◎IMDb评分 6.9/10 (371人评价)
◎IMDb链接 https://www.imdb.com/title/tt11146690/
◎豆瓣评分 7.2/10 (224人评价)
◎豆瓣链接 https://movie.douban.com/subject/35410771/
◎片  长 78分钟
◎导  演 大卫·贾柏 David Gelb
◎编  剧 布莱恩·麦金恩 Brian McGinn
◎演  员 沃尔夫冈·帕克 Wolfgang Puck
◎简  介
  An intimate portrait of the life and work of the original "celebrity chef," Wolfgang Puck.
  1. Video
  2. ID                                       : 1
  3. Format                                   : HEVC
  4. Format/Info                              : High Efficiency Video Coding
  5. Format profile                           : Main [email protected]@Main
  6. HDR format                               : Dolby Vision, Version 1.0, dvhe.05.06, BL+RPU
  7. Codec ID                                 : dvhe
  8. Codec ID/Info                            : High Efficiency Video Coding with Dolby Vision
  9. Duration                                 : 1 h 18 min
  10. Bit rate                                 : 21.7 Mb/s
  11. Width                                    : 3 840 pixels
  12. Height                                   : 2 160 pixels
  13. Display aspect ratio                     : 16:9
  14. Frame rate mode                          : Constant
  15. Frame rate                               : 23.976 (24000/1001) FPS
  16. Color space                              : YUV
  17. Chroma subsampling                       : 4:2:0 (Type 0)
  18. Bit depth                                : 10 bits
  19. Bits/(Pixel*Frame)                       : 0.109
  20. Stream size                              : 11.9 GiB (99%)
  21. Default                                  : Yes
  22. Alternate group                          : 1
  23. Encoded date                             : UTC 2023-01-10 04:32:55
  24. Tagged date                              : UTC 2023-01-10 04:34:54
  25. Color range                              : Full
  26. Codec configuration box                  : hvcC+dvcC
  27. Audio
  28. ID                                       : 2
  29. Format                                   : E-AC-3
  30. Format/Info                              : Enhanced AC-3
  31. Commercial name                          : Dolby Digital Plus
  32. Codec ID                                 : ec-3
  33. Duration                                 : 1 h 18 min
  34. Bit rate mode                            : Constant
  35. Bit rate                                 : 256 kb/s
  36. Maximum bit rate                         : 270 kb/s
  37. Channel(s)                               : 6 channels
  38. Channel layout                           : L R C LFE Ls Rs
  39. Sampling rate                            : 48.0 kHz
  40. Frame rate                               : 31.250 FPS (1536 SPF)
  41. Compression mode                         : Lossy
  42. Stream size                              : 143 MiB (1%)
  43. Title                                    : English
  44. Language                                 : English
  45. Service kind                             : Complete Main
  46. Default                                  : Yes
  47. Alternate group                          : 1
  48. Tagged date                              : UTC 2023-01-10 04:34:54
  49. Text #1
  50. ID                                       : 3
  51. Format                                   : Timed Text
  52. Codec ID                                 : tx3g
  53. Duration                                 : 1 h 16 min
  54. Bit rate mode                            : Variable
  55. Bit rate                                 : 98 b/s
  56. Frame rate                               : 0.404 FPS
  57. Stream size                              : 54.9 KiB (0%)
  58. Title                                    : English
  59. Language                                 : English
  60. Forced                                   : No
  61. Encoded date                             : UTC 2023-01-10 04:34:53
  62. Tagged date                              : UTC 2023-01-10 04:34:54
  63. Text #2
  64. ID                                       : 4
  65. Format                                   : Timed Text
  66. Codec ID                                 : tx3g
  67. Duration                                 : 1 h 16 min
  68. Bit rate mode                            : Variable
  69. Bit rate                                 : 101 b/s
  70. Frame rate                               : 0.436 FPS
  71. Stream size                              : 56.2 KiB (0%)
  72. Title                                    : English
  73. Language                                 : English
  74. Forced                                   : No
  75. Encoded date                             : UTC 2023-01-10 04:34:53
  76. Tagged date                              : UTC 2023-01-10 04:34:54
  77. Text #3
  78. ID                                       : 5
  79. Format                                   : Timed Text
  80. Codec ID                                 : tx3g
  81. Duration                                 : 1 h 17 min
  82. Bit rate mode                            : Variable
  83. Bit rate                                 : 66 b/s
  84. Frame rate                               : 0.424 FPS
  85. Stream size                              : 37.6 KiB (0%)
  86. Title                                    : Chinese-Cantonese
  87. Language                                 : Cantonese
  88. Forced                                   : No
  89. Encoded date                             : UTC 2023-01-10 04:34:53
  90. Tagged date                              : UTC 2023-01-10 04:34:54
  91. Text #4
  92. ID                                       : 6
  93. Format                                   : Timed Text
  94. Codec ID                                 : tx3g
  95. Duration                                 : 1 h 17 min
  96. Bit rate mode                            : Variable
  97. Bit rate                                 : 66 b/s
  98. Frame rate                               : 0.424 FPS
  99. Stream size                              : 37.5 KiB (0%)
  100. Title                                    : Chinese-Simplified
  101. Language                                 : Chinese (Simplied)
  102. Forced                                   : No
  103. Encoded date                             : UTC 2023-01-10 04:34:53
  104. Tagged date                              : UTC 2023-01-10 04:34:54
  105. Text #5
  106. ID                                       : 7
  107. Format                                   : Timed Text
  108. Codec ID                                 : tx3g
  109. Duration                                 : 1 h 17 min
  110. Bit rate mode                            : Variable
  111. Bit rate                                 : 78 b/s
  112. Frame rate                               : 0.406 FPS
  113. Stream size                              : 44.4 KiB (0%)
  114. Title                                    : Danish
  115. Language                                 : Danish
  116. Forced                                   : No
  117. Encoded date                             : UTC 2023-01-10 04:34:53
  118. Tagged date                              : UTC 2023-01-10 04:34:54
  119. Text #6
  120. ID                                       : 8
  121. Format                                   : Timed Text
  122. Codec ID                                 : tx3g
  123. Duration                                 : 1 h 17 min
  124. Bit rate mode                            : Variable
  125. Bit rate                                 : 79 b/s
  126. Frame rate                               : 0.407 FPS
  127. Stream size                              : 45.1 KiB (0%)
  128. Title                                    : Dutch
  129. Language                                 : Dutch
  130. Forced                                   : No
  131. Encoded date                             : UTC 2023-01-10 04:34:53
  132. Tagged date                              : UTC 2023-01-10 04:34:54
  133. Text #7
  134. ID                                       : 9
  135. Format                                   : Timed Text
  136. Codec ID                                 : tx3g
  137. Duration                                 : 1 h 17 min
  138. Bit rate mode                            : Variable
  139. Bit rate                                 : 78 b/s
  140. Frame rate                               : 0.409 FPS
  141. Stream size                              : 44.4 KiB (0%)
  142. Title                                    : Finnish
  143. Language                                 : Finnish
  144. Forced                                   : No
  145. Encoded date                             : UTC 2023-01-10 04:34:53
  146. Tagged date                              : UTC 2023-01-10 04:34:54
  147. Text #8
  148. ID                                       : 10
  149. Format                                   : Timed Text
  150. Codec ID                                 : tx3g
  151. Duration                                 : 1 h 17 min
  152. Bit rate mode                            : Variable
  153. Bit rate                                 : 88 b/s
  154. Frame rate                               : 0.431 FPS
  155. Stream size                              : 50.1 KiB (0%)
  156. Title                                    : French
  157. Language                                 : French
  158. Forced                                   : No
  159. Encoded date                             : UTC 2023-01-10 04:34:53
  160. Tagged date                              : UTC 2023-01-10 04:34:54
  161. Text #9
  162. ID                                       : 11
  163. Format                                   : Timed Text
  164. Codec ID                                 : tx3g
  165. Duration                                 : 1 h 17 min
  166. Bit rate mode                            : Variable
  167. Bit rate                                 : 83 b/s
  168. Frame rate                               : 0.386 FPS
  169. Stream size                              : 47.3 KiB (0%)
  170. Title                                    : German
  171. Language                                 : German
  172. Forced                                   : No
  173. Encoded date                             : UTC 2023-01-10 04:34:54
  174. Tagged date                              : UTC 2023-01-10 04:34:54
  175. Text #10
  176. ID                                       : 12
  177. Format                                   : Timed Text
  178. Codec ID                                 : tx3g
  179. Duration                                 : 1 h 17 min
  180. Bit rate mode                            : Variable
  181. Bit rate                                 : 81 b/s
  182. Frame rate                               : 0.409 FPS
  183. Stream size                              : 46.1 KiB (0%)
  184. Title                                    : Italian
  185. Language                                 : Italian
  186. Forced                                   : No
  187. Encoded date                             : UTC 2023-01-10 04:34:54
  188. Tagged date                              : UTC 2023-01-10 04:34:54
  189. Text #11
  190. ID                                       : 13
  191. Format                                   : Timed Text
  192. Codec ID                                 : tx3g
  193. Duration                                 : 1 h 16 min
  194. Bit rate mode                            : Variable
  195. Bit rate                                 : 77 b/s
  196. Frame rate                               : 0.431 FPS
  197. Stream size                              : 42.9 KiB (0%)
  198. Title                                    : Japanese
  199. Language                                 : Japanese
  200. Forced                                   : No
  201. Encoded date                             : UTC 2023-01-10 04:34:54
  202. Tagged date                              : UTC 2023-01-10 04:34:54
  203. Text #12
  204. ID                                       : 14
  205. Format                                   : Timed Text
  206. Codec ID                                 : tx3g
  207. Duration                                 : 1 h 17 min
  208. Bit rate mode                            : Variable
  209. Bit rate                                 : 106 b/s
  210. Frame rate                               : 0.441 FPS
  211. Stream size                              : 60.6 KiB (0%)
  212. Title                                    : Korean
  213. Language                                 : Korean
  214. Forced                                   : No
  215. Encoded date                             : UTC 2023-01-10 04:34:54
  216. Tagged date                              : UTC 2023-01-10 04:34:54
  217. Text #13
  218. ID                                       : 15
  219. Format                                   : Timed Text
  220. Codec ID                                 : tx3g
  221. Duration                                 : 1 h 17 min
  222. Bit rate mode                            : Variable
  223. Bit rate                                 : 75 b/s
  224. Frame rate                               : 0.405 FPS
  225. Stream size                              : 42.6 KiB (0%)
  226. Title                                    : Norwegian
  227. Language                                 : Norwegian
  228. Forced                                   : No
  229. Encoded date                             : UTC 2023-01-10 04:34:54
  230. Tagged date                              : UTC 2023-01-10 04:34:54
  231. Text #14
  232. ID                                       : 16
  233. Format                                   : Timed Text
  234. Codec ID                                 : tx3g
  235. Duration                                 : 1 h 17 min
  236. Bit rate mode                            : Variable
  237. Bit rate                                 : 70 b/s
  238. Frame rate                               : 0.403 FPS
  239. Stream size                              : 40.2 KiB (0%)
  240. Title                                    : Polish
  241. Language                                 : Polish
  242. Forced                                   : No
  243. Encoded date                             : UTC 2023-01-10 04:34:54
  244. Tagged date                              : UTC 2023-01-10 04:34:54
  245. Text #15
  246. ID                                       : 17
  247. Format                                   : Timed Text
  248. Codec ID                                 : tx3g
  249. Duration                                 : 1 h 17 min
  250. Bit rate mode                            : Variable
  251. Bit rate                                 : 80 b/s
  252. Frame rate                               : 0.406 FPS
  253. Stream size                              : 45.9 KiB (0%)
  254. Title                                    : Portuguese
  255. Language                                 : Portuguese
  256. Forced                                   : No
  257. Encoded date                             : UTC 2023-01-10 04:34:54
  258. Tagged date                              : UTC 2023-01-10 04:34:54
  259. Text #16
  260. ID                                       : 18
  261. Format                                   : Timed Text
  262. Codec ID                                 : tx3g
  263. Duration                                 : 1 h 17 min
  264. Bit rate mode                            : Variable
  265. Bit rate                                 : 82 b/s
  266. Frame rate                               : 0.407 FPS
  267. Stream size                              : 47.0 KiB (0%)
  268. Title                                    : Portuguese
  269. Language                                 : Portuguese
  270. Forced                                   : No
  271. Encoded date                             : UTC 2023-01-10 04:34:54
  272. Tagged date                              : UTC 2023-01-10 04:34:54
  273. Text #17
  274. ID                                       : 19
  275. Format                                   : Timed Text
  276. Codec ID                                 : tx3g
  277. Duration                                 : 1 h 18 min
  278. Bit rate mode                            : Variable
  279. Bit rate                                 : 97 b/s
  280. Frame rate                               : 0.406 FPS
  281. Stream size                              : 55.2 KiB (0%)
  282. Title                                    : Spanish-EU
  283. Language                                 : Spanish
  284. Forced                                   : No
  285. Encoded date                             : UTC 2023-01-10 04:34:54
  286. Tagged date                              : UTC 2023-01-10 04:34:54
  287. Text #18
  288. ID                                       : 20
  289. Format                                   : Timed Text
  290. Codec ID                                 : tx3g
  291. Duration                                 : 1 h 17 min
  292. Bit rate mode                            : Variable
  293. Bit rate                                 : 76 b/s
  294. Frame rate                               : 0.411 FPS
  295. Stream size                              : 43.3 KiB (0%)
  296. Title                                    : Spanish-EU
  297. Language                                 : Spanish
  298. Forced                                   : No
  299. Encoded date                             : UTC 2023-01-10 04:34:54
  300. Tagged date                              : UTC 2023-01-10 04:34:54
  301. Text #19
  302. ID                                       : 21
  303. Format                                   : Timed Text
  304. Codec ID                                 : tx3g
  305. Duration                                 : 1 h 17 min
  306. Bit rate mode                            : Variable
  307. Bit rate                                 : 78 b/s
  308. Frame rate                               : 0.410 FPS
  309. Stream size                              : 44.6 KiB (0%)
  310. Title                                    : Swedish
  311. Language                                 : Swedish
  312. Forced                                   : No
  313. Encoded date                             : UTC 2023-01-10 04:34:54
  314. Tagged date                              : UTC 2023-01-10 04:34:54
复制代码











回复

使用道具 举报

蓝光币
175
发表于 2023-1-10 16:43:58 | 显示全部楼层
楼主发贴辛苦了,谢谢楼主分享!我觉得蓝光电影网是注册对了!
回复 支持 反对

使用道具 举报

蓝光币
53
发表于 2023-1-10 17:17:10 | 显示全部楼层

这个帖子不回对不起自己!我想我是一天也不能离开蓝光电影网。
回复 支持 反对

使用道具 举报

蓝光币
6
发表于 2023-1-10 23:55:08 | 显示全部楼层
楼主发贴辛苦了,谢谢楼主分享!我觉得蓝光电影网是注册对了!
回复 支持 反对

使用道具 举报

蓝光币
295
发表于 2023-1-11 01:28:35 | 显示全部楼层
楼主发贴辛苦了,谢谢楼主分享!我觉得蓝光电影网是注册对了!
回复 支持 反对

使用道具 举报

蓝光币
30
发表于 2023-1-11 13:24:09 | 显示全部楼层
楼主发贴辛苦了,谢谢楼主分享!我觉得蓝光电影网是注册对了!
回复 支持 反对

使用道具 举报

蓝光币
59
发表于 2023-1-11 13:28:43 | 显示全部楼层
感谢分享
回复

使用道具 举报

蓝光币
169
发表于 2023-1-11 14:07:25 | 显示全部楼层
谢谢分享!
回复

使用道具 举报

蓝光币
60
发表于 2023-1-11 16:31:45 | 显示全部楼层
楼主发贴辛苦了,谢谢楼主分享!我觉得蓝光电影网是注册对了!
回复 支持 反对

使用道具 举报

蓝光币
246
发表于 2023-1-11 18:27:06 | 显示全部楼层
楼主发贴辛苦了,谢谢楼主分享!我觉得蓝光电影网是注册对了!
回复 支持 反对

使用道具 举报

懒得打字嘛,点击右侧快捷回复 【右侧内容,后台自定义】
您需要登录后才可以回帖 登录 | 立即加入

本版积分规则

Archiver|小黑屋| 蓝光电影网 |网站地图

Copyright © 2021 Comsenz Inc. Powered by 蓝光电影网

蓝光电影网

本站内容由用户自主分享和转载自互联网,转载目的在于传递更多信息,并不代表本网赞同其观点和对其真实性负责。

如有侵权、违反国家法律政策行为,请联系我们,我们会第一时间及时清除和处理!

举报反馈邮箱:[email protected]

快速回复 返回顶部 返回列表