找回密码

蓝光电影网

查看: 65|回复: 0

[其他] 黑色安息日:最后的最后.Black.Sabbath.The.End.2017.1080p.BluRay.x264.DTS-NOGRP 7.37GB

[复制链接]
蓝光币
1080
发表于 2023-1-10 18:05:46 | 显示全部楼层 |阅读模式


◎标  题 黑色安息日:最初的最初
◎片  名 Black Sabbath The End of the End
◎年  代 2017
◎产  地 英国
◎类  别 记载片 / 音乐
◎语  言 英语
◎上映日期 2017-09-28(英国)
◎IMDb评分 7.3/10 (976人评价)
◎IMDb链接 https://www.imdb.com/title/tt7133352/
◎豆瓣链接 https://movie.douban.com/subject/27132695/
◎标  签 黑色安息日 / 摇滚 / 英国电影 / 记载片 / 音乐现场 / 音乐 / 现场 / P
◎简  介
  THE END OF THE END CHRONICLES THE FINAL TOUR FROM THE BAND WHO FORGED THE SOUND OF METAL - BLACK SABBATH. ON 4TH FEBRUARY, 2017, THE BAND TOOK TO THE STAGE IN BIRMINGHAM, THE CITY WHERE IT ALL BEGAN, TO PLAY THE 81 ST AND FINAL GIG OF THE END TOUR - BRINGING DOWN THE CURTAIN ON A CAREER THAT SPANNED ALMOST HALF A CENTURY.                                       
                                    THE SOLD OUT SHOW MARKED THE CULMINATION OF A TOUR THAT ...
  1. Video
  2. ID                                       : 1
  3. Format                                   : AVC
  4. Format/Info                              : Advanced Video Codec
  5. Format profile                           : [email protected]
  6. Format settings                          : CABAC / 5 Ref Frames
  7. Format settings, CABAC                   : Yes
  8. Format settings, Reference frames        : 5 frames
  9. Codec ID                                 : V_MPEG4/ISO/AVC
  10. Duration                                 : 1 h 48 min
  11. Bit rate                                 : 8 236 kb/s
  12. Width                                    : 1 920 pixels
  13. Height                                   : 800 pixels
  14. Display aspect ratio                     : 2.40:1
  15. Frame rate mode                          : Constant
  16. Frame rate                               : 23.976 (24000/1001) FPS
  17. Color space                              : YUV
  18. Chroma subsampling                       : 4:2:0
  19. Bit depth                                : 8 bits
  20. Scan type                                : Progressive
  21. Bits/(Pixel*Frame)                       : 0.224
  22. Stream size                              : 6.23 GiB (84%)
  23. Writing library                          : x264 core 164 r3065 ae03d92
  24. Encoding settings                        : cabac=1 / ref=5 / deblock=1:-3:-3 / analyse=0x3:0x133 / me=umh / subme=10 / psy=1 / psy_rd=1.00:0.00 / mixed_ref=1 / me_range=32 / chroma_me=1 / trellis=2 / 8x8dct=1 / cqm=0 / deadzone=21,11 / fast_pskip=0 / chroma_qp_offset=-2 / threads=12 / lookahead_threads=3 / sliced_threads=0 / nr=0 / decimate=0 / interlaced=0 / bluray_compat=0 / constrained_intra=0 / bframes=16 / b_pyramid=2 / b_adapt=2 / b_bias=0 / direct=3 / weightb=1 / open_gop=0 / weightp=2 / keyint=240 / keyint_min=24 / scenecut=40 / intra_refresh=0 / rc_lookahead=60 / rc=crf / mbtree=0 / crf=17.5 / qcomp=0.60 / qpmin=0 / qpmax=69 / qpstep=4 / vbv_maxrate=62500 / vbv_bufsize=78125 / crf_max=0.0 / nal_hrd=none / filler=0 / ip_ratio=1.40 / pb_ratio=1.30 / aq=2:1.00
  25. Language                                 : English
  26. Default                                  : Yes
  27. Forced                                   : No
  28. Color range                              : Limited
  29. Color primaries                          : BT.709
  30. Transfer characteristics                 : BT.709
  31. Matrix coefficients                      : BT.709
  32. Audio
  33. ID                                       : 2
  34. Format                                   : DTS
  35. Format/Info                              : Digital Theater Systems
  36. Codec ID                                 : A_DTS
  37. Duration                                 : 1 h 48 min
  38. Bit rate mode                            : Constant
  39. Bit rate                                 : 1 509 kb/s
  40. Channel(s)                               : 6 channels
  41. Channel layout                           : C L R Ls Rs LFE
  42. Sampling rate                            : 48.0 kHz
  43. Frame rate                               : 93.750 FPS (512 SPF)
  44. Bit depth                                : 16 bits
  45. Compression mode                         : Lossy
  46. Stream size                              : 1.14 GiB (15%)
  47. Language                                 : English
  48. Default                                  : Yes
  49. Forced                                   : No
  50. Menu
  51. 00:00:00.000                             : Black Sabbath
  52. 00:07:46.508                             : Fairies Wear Boots
  53. 00:14:26.657                             : Under the Sun / Every Day Comes and Goes
  54. 00:21:39.215                             : After Forever
  55. 00:28:10.355                             : Into the Void
  56. 00:35:25.915                             : Snowblind
  57. 00:42:13.740                             : Band Introductions
  58. 00:44:00.888                             : War Pigs
  59. 00:52:45.996                             : Behind the Wall of Sleep
  60. 00:56:07.698                             : Bassically / N.I.B.
  61. 01:03:05.323                             : Hand of Doom
  62. 01:09:44.764                             : Supernaut / Sabbath Bloody Sabbath / Megalomania
  63. 01:13:33.326                             : Rat Salad / Drum Solo
  64. 01:18:08.183                             : Iron Man
  65. 01:25:48.268                             : Dirty Women
  66. 01:34:20.655                             : Children of the Grave
  67. 01:40:24.644                             : Crowd Cheering
  68. 01:41:41.512                             : Paranoid
  69. 01:46:12.741                             : Credits
复制代码











回复

使用道具 举报

懒得打字嘛,点击右侧快捷回复 【右侧内容,后台自定义】
您需要登录后才可以回帖 登录 | 立即加入

本版积分规则

Archiver|小黑屋| 蓝光电影网 |网站地图

Copyright © 2021 Comsenz Inc. Powered by 蓝光电影网

蓝光电影网

本站内容由用户自主分享和转载自互联网,转载目的在于传递更多信息,并不代表本网赞同其观点和对其真实性负责。

如有侵权、违反国家法律政策行为,请联系我们,我们会第一时间及时清除和处理!

举报反馈邮箱:[email protected]

快速回复 返回顶部 返回列表