找回密码

蓝光电影网

查看: 73|回复: 0

[其他] 拉乌尔·沃尔什的真实冒险.The.True.Adventures.Of.Raoul.Walsh.2014.1080p.BluRay.x264.FLAC.2.0-HANDJOB 8.02GB

[复制链接]
蓝光币
1084
发表于 2023-1-10 18:05:48 | 显示全部楼层 |阅读模式


◎标  题 拉乌尔·沃尔什的实在冒险
◎片  名 The True Adventures of Raoul Walsh
◎年  代 2014
◎产  地 美国
◎类  别 记载片
◎语  言 英语
◎上映日期 2014-09-30(瑞士)
◎IMDb评分 7.8/10 (97人评价)
◎IMDb链接 https://www.imdb.com/title/tt3790232/
◎豆瓣链接 https://movie.douban.com/subject/35545659/
◎片  长 100分钟
◎演  员 彼得·博格丹诺维奇 Peter Bogdanovich
◎简  介
  This is the first feature-length documentary on legendary director Raoul Walsh. In this 'memoir,' Walsh 'recounts' his career from the silent film era to the tumultuous 1960s. The documentary makes stunning use of rare, personal and production photos and footage, revealing Walsh's extraordinary, adventurous life on and off the set. From his apprenticeship with D.W. Griffith to ...
  1. Video
  2. ID                                       : 1
  3. Format                                   : AVC
  4. Format/Info                              : Advanced Video Codec
  5. Format profile                           : [email protected]
  6. Format settings                          : CABAC / 4 Ref Frames
  7. Format settings, CABAC                   : Yes
  8. Format settings, Reference frames        : 4 frames
  9. Codec ID                                 : V_MPEG4/ISO/AVC
  10. Duration                                 : 1 h 35 min
  11. Bit rate                                 : 11.6 Mb/s
  12. Width                                    : 1 920 pixels
  13. Height                                   : 1 080 pixels
  14. Display aspect ratio                     : 16:9
  15. Frame rate mode                          : Constant
  16. Frame rate                               : 25.000 FPS
  17. Color space                              : YUV
  18. Chroma subsampling                       : 4:2:0
  19. Bit depth                                : 8 bits
  20. Scan type                                : Progressive
  21. Bits/(Pixel*Frame)                       : 0.223
  22. Stream size                              : 7.69 GiB (96%)
  23. Writing library                          : x264 core 164 r3065 ae03d92
  24. Encoding settings                        : cabac=1 / ref=4 / deblock=1:-3:-3 / analyse=0x3:0x133 / me=umh / subme=10 / psy=1 / psy_rd=1.00:0.00 / mixed_ref=1 / me_range=32 / chroma_me=1 / trellis=2 / 8x8dct=1 / cqm=0 / deadzone=21,11 / fast_pskip=0 / chroma_qp_offset=-2 / threads=34 / lookahead_threads=8 / sliced_threads=0 / nr=0 / decimate=0 / interlaced=0 / bluray_compat=0 / constrained_intra=0 / bframes=16 / b_pyramid=2 / b_adapt=2 / b_bias=0 / direct=3 / weightb=1 / open_gop=0 / weightp=2 / keyint=250 / keyint_min=25 / scenecut=40 / intra_refresh=0 / rc_lookahead=60 / rc=crf / mbtree=0 / crf=16.0 / qcomp=0.60 / qpmin=0 / qpmax=69 / qpstep=4 / vbv_maxrate=62500 / vbv_bufsize=78125 / crf_max=0.0 / nal_hrd=none / filler=0 / ip_ratio=1.40 / pb_ratio=1.30 / aq=2:1.00
  25. Default                                  : Yes
  26. Forced                                   : No
  27. Color range                              : Limited
  28. Color primaries                          : BT.709
  29. Transfer characteristics                 : BT.709
  30. Matrix coefficients                      : BT.709
  31. Audio
  32. ID                                       : 2
  33. Format                                   : FLAC
  34. Format/Info                              : Free Lossless Audio Codec
  35. Codec ID                                 : A_FLAC
  36. Duration                                 : 1 h 35 min
  37. Bit rate mode                            : Variable
  38. Bit rate                                 : 466 kb/s
  39. Channel(s)                               : 2 channels
  40. Channel layout                           : L R
  41. Sampling rate                            : 48.0 kHz
  42. Frame rate                               : 11.719 FPS (4096 SPF)
  43. Bit depth                                : 16 bits
  44. Compression mode                         : Lossless
  45. Stream size                              : 317 MiB (4%)
  46. Writing library                          : libFLAC 1.2.1 (UTC 2007-09-17)
  47. Language                                 : English
  48. Default                                  : Yes
  49. Forced                                   : No
  50. MD5 of the unencoded content             : F8BD181772281F071F0EDD39027E7760
  51. Text
  52. ID                                       : 3
  53. Format                                   : PGS
  54. Muxing mode                              : zlib
  55. Codec ID                                 : S_HDMV/PGS
  56. Codec ID/Info                            : Picture based subtitle format used on BDs/HD-DVDs
  57. Duration                                 : 1 h 34 min
  58. Bit rate                                 : 54.5 kb/s
  59. Frame rate                               : 0.493 FPS
  60. Count of elements                        : 2806
  61. Stream size                              : 37.0 MiB (0%)
  62. Language                                 : French
  63. Default                                  : No
  64. Forced                                   : No
  65. Menu
  66. 00:00:00.000                             : Chapter 1
  67. 00:09:56.480                             : Chapter 2
  68. 00:18:54.880                             : Chapter 3
  69. 00:28:37.960                             : Chapter 4
  70. 00:38:27.000                             : Chapter 5
  71. 00:49:41.960                             : Chapter 6
  72. 01:00:24.480                             : Chapter 7
  73. 01:10:31.400                             : Chapter 8
  74. 01:21:02.520                             : Chapter 9
复制代码











回复

使用道具 举报

懒得打字嘛,点击右侧快捷回复 【右侧内容,后台自定义】
您需要登录后才可以回帖 登录 | 立即加入

本版积分规则

Archiver|小黑屋| 蓝光电影网 |网站地图

Copyright © 2021 Comsenz Inc. Powered by 蓝光电影网

蓝光电影网

本站内容由用户自主分享和转载自互联网,转载目的在于传递更多信息,并不代表本网赞同其观点和对其真实性负责。

如有侵权、违反国家法律政策行为,请联系我们,我们会第一时间及时清除和处理!

举报反馈邮箱:[email protected]

快速回复 返回顶部 返回列表