找回密码

蓝光电影网

查看: 35|回复: 1

[2160p] 黑色圣诞节.Black.Christmas.1974.2160p.UHD.BluRay.x265.10bit.HDR.DTS-HD.MA.5.1-RARBG 8.36GB

[复制链接]
蓝光币
1084
发表于 2023-1-11 22:03:43 | 显示全部楼层 |阅读模式


◎标  题 黑色圣诞节
◎译  名 女生惊魂记 / Silent Night /  Evil Night
◎片  名 Black Christmas
◎年  代 1974
◎产  地 加拿大
◎类  别 悬疑 / 惊悚 / 可骇
◎语  言 英语
◎上映日期 1974-10-11
◎IMDb评分 7.1/10 (43211人评价)
◎IMDb链接 https://www.imdb.com/title/tt0071222/
◎豆瓣评分 6.3/10 (589人评价)
◎豆瓣链接 https://movie.douban.com/subject/1299646/
◎片  长 98 分钟
◎导  演 鲍勃·克拉克 Bob Clark
◎编  剧 罗伊·摩尔 Roy Moore
◎演  员 奥丽维娅·赫西 Olivia Hussey
       玛戈·基德 Margot Kidder
       尼克‧曼库索 Nick Mancuso
       道格·麦克格拉斯 Doug McGrath
       林恩·格里芬 Lynne Griffin
       阿特·欣德尔 Art Hindle
       Michael Rapport Michael Rapport
       John Stoneham Sr. John Stoneham Sr.
       Marian Waldman Marian Waldman
       Robert Warner Robert Warner
       玛莎·吉布森 Martha Gibson
       Marcia Diamond Marcia Diamond
       安德列·马丁 Andrea Martin
       约翰·萨克松 John Saxon
       John Rutter John Rutter
       凯尔·杜拉 Keir Dullea
       鲍勃·克拉克 Bob Clark
       莱斯利·卡尔森 Leslie Carlson
       Syd Brown Syd Brown
       James Edmond James Edmond
       鲍勃·克拉克 Bob Clark
       Reginald H. Morris Reginald H. Morris
       Tony Thatcher Tony Thatcher
       John M. Eckert John M. Eckert
◎简  介
  一年一度的圣诞节再次到来,加拿大一幢由民宅改建的校外女子宿舍中,芭布(Margot Kidder 饰)、菲利丝(Andrea Martin 饰)、杰西卡(Olivia Hussey 饰)、克莱尔(Lynne Griffin 饰)等几名青春靓丽的女孩正为各自的假期作筹算。忽然,一通奥秘的电话打破了这欢乐的氛围。性情鲁莽的芭布斥责电话另一头的汉子,而汉子则留下“未来杀死你们”的可骇话语。当晚,克莱尔在房间内被人残暴杀戮。克莱尔的死令宿舍的姐妹们既悲伤又恐惧,但是警方却将精神集合在另一位13岁女孩的失落案上,对克莱尔之死未赐与太多关注。在接下来的一段时候内,舍监麦克夫人(Marian Waldman 饰)随即遇害,而监犯居然久长以来居住在这所屋子当中。一段隐藏多年的昏暗血腥的曩昔随之渐渐显现……                                       
                                    本片荣获1975年加拿大电影节最好女配角奖(Margot K...
  1. Video
  2. ID                                       : 1
  3. Format                                   : HEVC
  4. Format/Info                              : High Efficiency Video Coding
  5. Format profile                           : Main [email protected]@Main
  6. HDR format                               : SMPTE ST 2086, HDR10 compatible
  7. Codec ID                                 : V_MPEGH/ISO/HEVC
  8. Duration                                 : 1 h 38 min
  9. Bit rate                                 : 8 023 kb/s
  10. Width                                    : 3 840 pixels
  11. Height                                   : 2 076 pixels
  12. Display aspect ratio                     : 1.85:1
  13. Frame rate mode                          : Constant
  14. Frame rate                               : 24.000 FPS
  15. Color space                              : YUV
  16. Chroma subsampling                       : 4:2:0
  17. Bit depth                                : 10 bits
  18. Bits/(Pixel*Frame)                       : 0.042
  19. Stream size                              : 5.50 GiB (66%)
  20. Writing library                          : x265 3.5+rarbg-HDR-38-20255e6:[Linux][clang 16.0.0][64 bit] 10bit
  21. Encoding settings                        : cpuid=1111039 / frame-threads=6 / wpp / no-pmode / no-pme / no-psnr / no-ssim / log-level=2 / input-csp=1 / input-res=3840x2076 / interlace=0 / total-frames=0 / level-idc=51 / high-tier=1 / uhd-bd=0 / ref=4 / no-allow-non-conformance / repeat-headers / annexb / aud / no-eob / no-eos / no-hrd / info / hash=0 / no-temporal-layers / no-open-gop / min-keyint=1 / keyint=24 / gop-lookahead=0 / bframes=4 / b-adapt=2 / b-pyramid / bframe-bias=0 / rc-lookahead=25 / lookahead-slices=4 / scenecut=40 / no-hist-scenecut / radl=0 / no-splice / no-intra-refresh / ctu=64 / min-cu-size=8 / rect / no-amp / max-tu-size=32 / tu-inter-depth=1 / tu-intra-depth=1 / limit-tu=0 / rdoq-level=2 / dynamic-rd=0.00 / no-ssim-rd / signhide / no-tskip / nr-intra=0 / nr-inter=0 / no-constrained-intra / strong-intra-smoothing / max-merge=3 / limit-refs=3 / no-limit-modes / me=3 / subme=3 / merange=57 / temporal-mvp / no-frame-dup / no-hme / weightp / no-weightb / no-analyze-src-pics / deblock=0:0 / no-sao / no-sao-non-deblock / rd=4 / selective-sao=0 / no-early-skip / rskip / no-fast-intra / no-tskip-fast / no-cu-lossless / no-b-intra / no-splitrd-skip / rdpenalty=0 / psy-rd=2.00 / psy-rdoq=1.00 / no-rd-refine / no-lossless / cbqpoffs=0 / crqpoffs=0 / rc=abr / bitrate=8000 / qcomp=0.60 / qpstep=4 / stats-write=0 / stats-read=2 / cplxblur=20.0 / qblur=0.5 / ipratio=1.40 / pbratio=1.30 / aq-mode=1 / aq-strength=1.00 / cutree / zone-count=0 / no-strict-cbr / qg-size=32 / no-rc-grain / qpmax=69 / qpmin=0 / no-const-vbv / sar=1 / overscan=0 / videoformat=5 / range=0 / colorprim=9 / transfer=16 / colormatrix=9 / chromaloc=0 / display-window=0 / master-display=G(8500,39850)B(6550,2300)R(35400,14600)WP(15635,16450)L(10000000,1) / cll=979,84 / min-luma=0 / max-luma=1023 / log2-max-poc-lsb=8 / vui-timing-info / vui-hrd-info / slices=1 / no-opt-qp-pps / no-opt-ref-list-length-pps / no-multi-pass-opt-rps / scenecut-bias=0.05 / hist-threshold=0.03 / no-opt-cu-delta-qp / no-aq-motion / hdr10 / hdr10-opt / no-dhdr10-opt / no-idr-recovery-sei / analysis-reuse-level=0 / analysis-save-reuse-level=0 / analysis-load-reuse-level=0 / scale-factor=0 / refine-intra=0 / refine-inter=0 / refine-mv=1 / refine-ctu-distortion=0 / no-limit-sao / ctu-info=0 / no-lowpass-dct / refine-analysis-type=0 / copy-pic=1 / max-ausize-factor=1.0 / no-dynamic-refine / no-single-sei / no-hevc-aq / no-svt / no-field / qp-adaptation-range=1.00 / scenecut-aware-qp=0conformance-window-offsets / right=0 / bottom=0 / decoder-max-rate=0 / no-vbv-live-multi-pass
  22. Default                                  : Yes
  23. Forced                                   : No
  24. Color range                              : Limited
  25. Color primaries                          : BT.2020
  26. Transfer characteristics                 : PQ
  27. Matrix coefficients                      : BT.2020 non-constant
  28. Mastering display color primaries        : BT.2020
  29. Mastering display luminance              : min: 0.0001 cd/m2, max: 1000 cd/m2
  30. Maximum Content Light Level              : 979 cd/m2
  31. Maximum Frame-Average Light Level        : 84 cd/m2
  32. Audio #1
  33. ID                                       : 2
  34. Format                                   : DTS XLL
  35. Format/Info                              : Digital Theater Systems
  36. Commercial name                          : DTS-HD Master Audio
  37. Codec ID                                 : A_DTS
  38. Duration                                 : 1 h 38 min
  39. Bit rate mode                            : Variable
  40. Bit rate                                 : 3 775 kb/s
  41. Channel(s)                               : 6 channels
  42. Channel layout                           : C L R Ls Rs LFE
  43. Sampling rate                            : 48.0 kHz
  44. Frame rate                               : 93.750 FPS (512 SPF)
  45. Bit depth                                : 24 bits
  46. Compression mode                         : Lossless
  47. Stream size                              : 2.59 GiB (31%)
  48. Title                                    : English DTS-HD MA 5.1
  49. Language                                 : English
  50. Default                                  : Yes
  51. Forced                                   : No
  52. Audio #2
  53. ID                                       : 3
  54. Format                                   : AC-3
  55. Format/Info                              : Audio Coding 3
  56. Commercial name                          : Dolby Digital
  57. Codec ID                                 : A_AC3
  58. Duration                                 : 1 h 38 min
  59. Bit rate mode                            : Constant
  60. Bit rate                                 : 384 kb/s
  61. Channel(s)                               : 6 channels
  62. Channel layout                           : L R C LFE Ls Rs
  63. Sampling rate                            : 48.0 kHz
  64. Frame rate                               : 31.250 FPS (1536 SPF)
  65. Compression mode                         : Lossy
  66. Stream size                              : 270 MiB (3%)
  67. Title                                    : English DD 5.1
  68. Language                                 : English
  69. Service kind                             : Complete Main
  70. Default                                  : No
  71. Forced                                   : No
  72. Text #1
  73. ID                                       : 4
  74. Format                                   : UTF-8
  75. Codec ID                                 : S_TEXT/UTF8
  76. Codec ID/Info                            : UTF-8 Plain Text
  77. Duration                                 : 1 h 35 min
  78. Bit rate                                 : 53 b/s
  79. Frame rate                               : 0.223 FPS
  80. Count of elements                        : 1280
  81. Stream size                              : 37.5 KiB (0%)
  82. Title                                    : English SRT
  83. Language                                 : English
  84. Default                                  : Yes
  85. Forced                                   : No
  86. Text #2
  87. ID                                       : 5
  88. Format                                   : UTF-8
  89. Codec ID                                 : S_TEXT/UTF8
  90. Codec ID/Info                            : UTF-8 Plain Text
  91. Duration                                 : 1 h 37 min
  92. Bit rate                                 : 58 b/s
  93. Frame rate                               : 0.264 FPS
  94. Count of elements                        : 1551
  95. Stream size                              : 42.1 KiB (0%)
  96. Title                                    : English SDH SRT
  97. Language                                 : English
  98. Default                                  : No
  99. Forced                                   : No
  100. Menu
  101. 00:00:00.000                             : en:Chapter 01
  102. 00:09:12.291                             : en:Chapter 02
  103. 00:16:35.416                             : en:Chapter 03
  104. 00:24:51.541                             : en:Chapter 04
  105. 00:32:28.166                             : en:Chapter 05
  106. 00:41:41.541                             : en:Chapter 06
  107. 00:50:08.000                             : en:Chapter 07
  108. 00:59:03.166                             : en:Chapter 08
  109. 01:05:52.083                             : en:Chapter 09
  110. 01:13:40.583                             : en:Chapter 10
  111. 01:20:53.958                             : en:Chapter 11
  112. 01:29:58.583                             : en:Chapter 12
复制代码











回复

使用道具 举报

蓝光币
49
发表于 2023-1-12 13:13:15 | 显示全部楼层
楼主发贴辛苦了,谢谢楼主分享!我觉得蓝光电影网是注册对了!
回复 支持 反对

使用道具 举报

懒得打字嘛,点击右侧快捷回复 【右侧内容,后台自定义】
您需要登录后才可以回帖 登录 | 立即加入

本版积分规则

Archiver|小黑屋| 蓝光电影网 |网站地图

Copyright © 2021 Comsenz Inc. Powered by 蓝光电影网

蓝光电影网

本站内容由用户自主分享和转载自互联网,转载目的在于传递更多信息,并不代表本网赞同其观点和对其真实性负责。

如有侵权、违反国家法律政策行为,请联系我们,我们会第一时间及时清除和处理!

举报反馈邮箱:[email protected]

快速回复 返回顶部 返回列表