找回密码

蓝光电影网

查看: 31|回复: 0

[剧情] 3个受伤的警察[国语音轨].The.Log.1996.CHINESE.ENSUBBED.1080p.WEBRip.AAC2.0.x264-NOGRP 3.16GB

[复制链接]
蓝光币
1080
发表于 2023-1-11 22:12:09 | 显示全部楼层 |阅读模式


◎译  名 3个受伤的差人 / 三个受伤的差人 / The Log
◎片  名 3個受傷的差人
◎年  代 1996
◎产  地 中国香港
◎类  别 剧情 / 犯罪
◎语  言 粤语
◎上映日期 1996-06-13
◎豆瓣评星 ★★★★☆
◎豆瓣评分 7.6/10 from 2,451 users
◎豆瓣链接 https://movie.douban.com/subject/1759192/
◎片  长 95 分钟
◎导  演 赵崇基 / Sung Kee Chiu
◎演  员 郑则仕 / Kent Cheng
      王敏德 / Michael Wong
      林晓峰 / Jerry Lamb
      毛俊辉 / Fredric Mao Chun-fai
      黎耀祥 / Wayne Lai
      冯德伦 / Stephen Fung
      木星 / Sing Muk
      蔡业信 / Raven Choi Yip-San
      李道谕 / Do-Yu Lee | 饰 保哥
      杨雪仪 / Cher Yeung
      张旭燊 / Yuk-San Cheung
◎编  剧 鲁秉 / Bing Lo
◎音  乐 刘以达 / Tats Lau
◎剪  辑 蒋国权 / Kwang Che Ching
◎简  介 
  故事发生在1996年12月31日,常日里刻毒无情的王帮办(王敏德 饰)在一次危险的使命当中误杀了一位人质,一时候,法律者沦为犯罪者,昔日里吃过他苦头的部属们纷纷伺机报复。长腰(林晓峰 饰)是初出茅庐的菜鸟警察,于执勤当中打死了一位小混混,开初,长腰深信自己系为民除害,洋洋得意,但是,当他见到了小混混的亲人以后,后悔的心境在他的心里舒展。
  夺命甘(郑则仕 饰)为警队辛苦工作多年,却发现自己的妻子居然和下属(毛俊辉 饰)有奸情,愤慨至极的他起了杀意。在元旦舞会上,夺命甘手稳重型机枪挟持了众多警察,他的昔日同事兼好友王帮办和长腰被派出同夺命甘谈判。
◎获奖情况 
  第16届香港电影金像奖 (1997)
  最好导演(提名) 赵崇基
  最好男配角 郑则仕
  最好男配角(提名) 林晓峰
  最好原创电影音乐(提名) 刘以达
  1. Video
  2. ID : 1
  3. Format : AVC
  4. Format/Info : Advanced Video Codec
  5. Format profile : [email protected]
  6. Format settings : CABAC / 4 Ref Frames
  7. Format settings, CABAC : Yes
  8. Format settings, Reference frames : 4 frames
  9. Codec ID : V_MPEG4/ISO/AVC
  10. Duration : 1 h 32 min
  11. Bit rate mode : Variable
  12. Bit rate : 4 808 kb/s
  13. Width : 1 920 pixels
  14. Height : 1 080 pixels
  15. Display aspect ratio : 16:9
  16. Frame rate mode : Constant
  17. Frame rate : 25.000 FPS
  18. Standard : Component
  19. Color space : YUV
  20. Chroma subsampling : 4:2:0
  21. Bit depth : 8 bits
  22. Scan type : Progressive
  23. Bits/(Pixel*Frame) : 0.093
  24. Stream size : 3.10 GiB (98%)
  25. Language : Chinese
  26. Default : Yes
  27. Forced : No
  28. Color range : Limited
  29. Audio
  30. ID : 2
  31. Format : AAC LC
  32. Format/Info : Advanced Audio Codec Low Complexity
  33. Codec ID : A_AAC-2
  34. Duration : 1 h 32 min
  35. Bit rate : 93.4 kb/s
  36. Channel(s) : 2 channels
  37. Channel layout : L R
  38. Sampling rate : 48.0 kHz
  39. Frame rate : 46.875 FPS (1024 SPF)
  40. Compression mode : Lossy
  41. Stream size : 61.7 MiB (2%)
  42. Title : Cantonese
  43. Language : Chinese
  44. Default : No
  45. Forced : No
复制代码













回复

使用道具 举报

懒得打字嘛,点击右侧快捷回复 【右侧内容,后台自定义】
您需要登录后才可以回帖 登录 | 立即加入

本版积分规则

Archiver|小黑屋| 蓝光电影网 |网站地图

Copyright © 2021 Comsenz Inc. Powered by 蓝光电影网

蓝光电影网

本站内容由用户自主分享和转载自互联网,转载目的在于传递更多信息,并不代表本网赞同其观点和对其真实性负责。

如有侵权、违反国家法律政策行为,请联系我们,我们会第一时间及时清除和处理!

举报反馈邮箱:[email protected]

快速回复 返回顶部 返回列表