找回密码

蓝光电影网

查看: 1127|回复: 1

[动作] 狩猎岛游戏.The.Most.Dangerous.Game.2022.1080p.BluRay.REMUX.AVC.DTS-HD.MA.2.0-FGT 17.71GB

[复制链接]
蓝光币
1688
发表于 2023-1-11 22:16:18 | 显示全部楼层 |阅读模式


◎标  题 狩猎岛游戏
◎片  名 The Most Dangerous Game
◎年  代 2022
◎产  地 美国
◎类  别 行动 / 惊悚
◎语  言 英语
◎上映日期 2022-08-05(美国)
◎IMDb评分 3.4/10 (307人评价)
◎IMDb链接 https://www.imdb.com/title/tt15822738/
◎豆瓣链接 https://movie.douban.com/subject/35718305/
◎片  长 95分钟
◎演  员 卡斯帕·范·迪恩 Casper Van Dien
       布鲁斯·邓恩 Bruce Dern
       汤姆·贝伦杰 Tom Berenger
       贾德·尼尔森 Judd Nelson
       Kevin Porter Kevin Porter
       Chris Tamburello Chris Tamburello
       艾丽莎·道林 Elissa Dowling
       爱德华多·芬莱 Edward Finlay
       兰迪·查奇 Randy Charach
◎简  介
    汽船爆炸后,一对父子被冲登陆。这些人在一个奥秘的岛上找到了出亡所,在那边,他们邪恶的仆人向他们流露,这个岛是他的狩猎庇护区,在那边人类充任了终极的捕猎者
  1. Video
  2. ID                                       : 1
  3. ID in the original source medium         : 4113 (0x1011)
  4. Format                                   : AVC
  5. Format/Info                              : Advanced Video Codec
  6. Format profile                           : High@L4.1
  7. Format settings                          : CABAC / 4 Ref Frames
  8. Format settings, CABAC                   : Yes
  9. Format settings, Reference frames        : 4 frames
  10. Codec ID                                 : V_MPEG4/ISO/AVC
  11. Duration                                 : 1 h 34 min
  12. Bit rate mode                            : Variable
  13. Bit rate                                 : 24.7 Mb/s
  14. Maximum bit rate                         : 30.0 Mb/s
  15. Width                                    : 1 920 pixels
  16. Height                                   : 1 080 pixels
  17. Display aspect ratio                     : 16:9
  18. Frame rate mode                          : Constant
  19. Frame rate                               : 23.976 (24000/1001) FPS
  20. Standard                                 : NTSC
  21. Color space                              : YUV
  22. Chroma subsampling                       : 4:2:0
  23. Bit depth                                : 8 bits
  24. Scan type                                : Progressive
  25. Bits/(Pixel*Frame)                       : 0.497
  26. Stream size                              : 16.3 GiB (92%)
  27. Language                                 : English
  28. Default                                  : No
  29. Forced                                   : No
  30. Color range                              : Limited
  31. Color primaries                          : BT.709
  32. Transfer characteristics                 : BT.709
  33. Matrix coefficients                      : BT.709
  34. Original source medium                   : Blu-ray
  35. Audio
  36. ID                                       : 2
  37. ID in the original source medium         : 4352 (0x1100)
  38. Format                                   : DTS XLL
  39. Format/Info                              : Digital Theater Systems
  40. Commercial name                          : DTS-HD Master Audio
  41. Codec ID                                 : A_DTS
  42. Duration                                 : 1 h 34 min
  43. Bit rate mode                            : Variable
  44. Bit rate                                 : 2 125 kb/s
  45. Channel(s)                               : 2 channels
  46. Channel layout                           : L R
  47. Sampling rate                            : 48.0 kHz
  48. Frame rate                               : 93.750 FPS (512 SPF)
  49. Bit depth                                : 24 bits
  50. Compression mode                         : Lossless
  51. Stream size                              : 1.40 GiB (8%)
  52. Title                                    : DTS-HD MA 2.0
  53. Language                                 : English
  54. Default                                  : Yes
  55. Forced                                   : No
  56. Original source medium                   : Blu-ray
  57. Text #1
  58. ID                                       : 3
  59. Format                                   : UTF-8
  60. Codec ID                                 : S_TEXT/UTF8
  61. Codec ID/Info                            : UTF-8 Plain Text
  62. Duration                                 : 1 h 30 min
  63. Bit rate                                 : 51 b/s
  64. Frame rate                               : 0.212 FPS
  65. Count of elements                        : 1145
  66. Stream size                              : 33.9 KiB (0%)
  67. Language                                 : English
  68. Default                                  : Yes
  69. Forced                                   : No
  70. Text #2
  71. ID                                       : 4
  72. Format                                   : UTF-8
  73. Codec ID                                 : S_TEXT/UTF8
  74. Codec ID/Info                            : UTF-8 Plain Text
  75. Duration                                 : 1 h 33 min
  76. Bit rate                                 : 52 b/s
  77. Frame rate                               : 0.223 FPS
  78. Count of elements                        : 1242
  79. Stream size                              : 35.6 KiB (0%)
  80. Title                                    : SDH
  81. Language                                 : English
  82. Default                                  : No
  83. Forced                                   : No
  84. Text #3
  85. ID                                       : 5
  86. ID in the original source medium         : 4608 (0x1200)
  87. Format                                   : PGS
  88. Muxing mode                              : zlib
  89. Codec ID                                 : S_HDMV/PGS
  90. Codec ID/Info                            : Picture based subtitle format used on BDs/HD-DVDs
  91. Duration                                 : 1 h 33 min
  92. Bit rate                                 : 21.1 kb/s
  93. Frame rate                               : 0.471 FPS
  94. Count of elements                        : 2631
  95. Stream size                              : 14.0 MiB (0%)
  96. Language                                 : English
  97. Default                                  : No
  98. Forced                                   : No
  99. Original source medium                   : Blu-ray
  100. Menu
  101. 00:00:00.000                             : en:Chapter 01
  102. 00:01:15.742                             : en:Chapter 02
  103. 00:09:46.294                             : en:Chapter 03
  104. 00:17:59.244                             : en:Chapter 04
  105. 00:35:11.734                             : en:Chapter 05
  106. 00:43:51.253                             : en:Chapter 06
  107. 00:56:58.123                             : en:Chapter 07
  108. 01:12:39.980                             : en:Chapter 08
  109. 01:33:02.493                             : en:Chapter 09
复制代码











回复

使用道具 举报

蓝光币
687
发表于 2023-1-13 00:04:49 | 显示全部楼层

楼主,大恩不言谢了!蓝光电影网是最棒的!
回复 支持 反对

使用道具 举报

懒得打字嘛,点击右侧快捷回复 【右侧内容,后台自定义】
您需要登录后才可以回帖 登录 | 立即加入

本版积分规则

Archiver|小黑屋| 蓝光电影网 |网站地图

Copyright © 2021 Comsenz Inc. Powered by 蓝光电影网

蓝光电影网

本站内容由用户自主分享和转载自互联网,转载目的在于传递更多信息,并不代表本网赞同其观点和对其真实性负责。

如有侵权、违反国家法律政策行为,请联系我们,我们会第一时间及时清除和处理!

举报反馈邮箱:4k1080.com@gmail.com

快速回复 返回顶部 返回列表