找回密码

查看: 1497|回复: 52

[惊悚] 狩猎之夜.Night.of.the.Hunted.2023.1080p.BluRay.x264-OFT 4.10GB

[复制链接]
蓝光币
1917
发表于 2024-4-13 11:53:03 | 显示全部楼层 |阅读模式


◎译  名 狩猎之夜
◎片  名 Night of the Hunted
◎年  代 2023
◎产  地 美国 / 法国
◎类  别 惊悚
◎上映日期 2023-09-06(奇异电影节) / 2023-10-20(美国)
◎IMDb评星  ★★★★★✦☆☆☆☆
◎IMDb评分  5.3/10 from 3,375 users
◎IMDb链接  https://www.imdb.com/title/tt23642744/
◎豆瓣评星 ★★✦☆☆
◎豆瓣评分 5.1/10 from 454 users
◎豆瓣链接 https://movie.douban.com/subject/36223122/
◎片  长 94分钟
◎导  演 弗兰克·卡方 / Franck Khalfoun
◎演  员 卡蜜尔·罗 / Camille Rowe
      Aleksandar Popovic Aleksandar Popovic
◎编  剧 弗兰克·卡方 / Franck Khalfoun
◎简  介 
  When an unsuspecting woman stops at a remote gas station in the dead of night, she's made the plaything of a sociopath sniper with a secret vendetta. To survive she must not only dodge his bullets and fight for her life, but also figure out who wants her dead and why.
  1. General
  2. Unique ID                                : 102089048850970884789830994248347225878 (0x4CCDA2B7D5EE1005EEAC5939B8D50F16)
  3. Complete name                            : Night.of.the.Hunted.2023.1080p.BluRay.x264-OFT/Night.of.the.Hunted.2023.1080p.BluRay.x264-OFT.mkv
  4. Format                                   : Matroska
  5. Format version                           : Version 4
  6. File size                                : 4.10 GiB
  7. Duration                                 : 1 h 34 min
  8. Overall bit rate                         : 6 202 kb/s
  9. Movie name                               : Night.of.the.Hunted.2023.1080p.BluRay.x264-OFT
  10. Encoded date                             : UTC 2024-03-26 00:15:36
  11. Writing application                      : mkvmerge v82.0 ('I'm The President') 64-bit
  12. Writing library                          : libebml v1.4.5 + libmatroska v1.7.1 / Lavf58.76.100
  13. Video
  14. ID                                       : 1
  15. Format                                   : AVC
  16. Format/Info                              : Advanced Video Codec
  17. Format profile                           : High@L4
  18. Format settings                          : CABAC / 4 Ref Frames
  19. Format settings, CABAC                   : Yes
  20. Format settings, Reference frames        : 4 frames
  21. Codec ID                                 : V_MPEG4/ISO/AVC
  22. Duration                                 : 1 h 34 min
  23. Bit rate                                 : 5 760 kb/s
  24. Width                                    : 1 920 pixels
  25. Height                                   : 1 080 pixels
  26. Display aspect ratio                     : 16:9
  27. Frame rate mode                          : Constant
  28. Frame rate                               : 24.000 FPS
  29. Color space                              : YUV
  30. Chroma subsampling                       : 4:2:0
  31. Bit depth                                : 8 bits
  32. Scan type                                : Progressive
  33. Bits/(Pixel*Frame)                       : 0.116
  34. Stream size                              : 3.80 GiB (93%)
  35. Writing library                          : x264 core 164 r3065 ae03d92
  36. Encoding settings                        : cabac=1 / ref=4 / deblock=1:-3:-3 / analyse=0x3:0x133 / me=umh / subme=9 / psy=1 / psy_rd=1.10:0.25 / mixed_ref=1 / me_range=32 / chroma_me=1 / trellis=2 / 8x8dct=1 / cqm=0 / deadzone=6,6 / fast_pskip=1 / chroma_qp_offset=-4 / threads=34 / lookahead_threads=3 / sliced_threads=0 / nr=0 / decimate=1 / interlaced=0 / bluray_compat=0 / constrained_intra=0 / bframes=6 / b_pyramid=2 / b_adapt=2 / b_bias=0 / direct=3 / weightb=1 / open_gop=0 / weightp=2 / keyint=240 / keyint_min=24 / scenecut=40 / intra_refresh=0 / rc_lookahead=30 / rc=2pass / mbtree=1 / bitrate=5760 / ratetol=1.0 / qcomp=0.60 / qpmin=0 / qpmax=69 / qpstep=4 / cplxblur=20.0 / qblur=0.5 / vbv_maxrate=25000 / vbv_bufsize=31250 / nal_hrd=none / filler=0 / ip_ratio=1.40 / aq=1:1.00
  37. Default                                  : Yes
  38. Forced                                   : No
  39. Color range                              : Limited
  40. Color primaries                          : BT.709
  41. Transfer characteristics                 : BT.709
  42. Matrix coefficients                      : BT.709
  43. Audio
  44. ID                                       : 2
  45. Format                                   : AC-3
  46. Format/Info                              : Audio Coding 3
  47. Commercial name                          : Dolby Digital
  48. Codec ID                                 : A_AC3
  49. Duration                                 : 1 h 34 min
  50. Bit rate mode                            : Constant
  51. Bit rate                                 : 448 kb/s
  52. Channel(s)                               : 6 channels
  53. Channel layout                           : L R C LFE Ls Rs
  54. Sampling rate                            : 48.0 kHz
  55. Frame rate                               : 31.250 FPS (1536 SPF)
  56. Compression mode                         : Lossy
  57. Delay relative to video                  : -5 ms
  58. Stream size                              : 303 MiB (7%)
  59. Title                                    : Surround AC3 5.1
  60. Language                                 : English
  61. Service kind                             : Complete Main
  62. Default                                  : Yes
  63. Forced                                   : No
复制代码









回复

使用道具 举报

蓝光币
1015
发表于 2024-4-14 06:50:15 | 显示全部楼层

既然你诚信诚意的推荐了,那我就勉为其难的看看吧!蓝光电影网不走平凡路。
回复

使用道具 举报

蓝光币
354
发表于 2024-4-15 08:28:56 | 显示全部楼层
楼主发贴辛苦了,谢谢楼主分享!我觉得蓝光电影网是注册对了!
回复

使用道具 举报

蓝光币
6
发表于 2024-4-15 17:47:55 | 显示全部楼层
谢谢楼主分享!
回复

使用道具 举报

蓝光币
321
发表于 2024-4-15 17:48:29 | 显示全部楼层
xxndscxxndsc
回复

使用道具 举报

蓝光币
24
发表于 2024-4-15 19:20:17 | 显示全部楼层
楼主发贴辛苦了,谢谢楼主分享!
回复

使用道具 举报

蓝光币
362
发表于 2024-4-16 08:14:07 | 显示全部楼层
楼主发贴辛苦了,谢谢楼主分享!我觉得蓝光电影网是注册对了!
回复

使用道具 举报

蓝光币
641
发表于 2024-4-16 14:02:21 | 显示全部楼层
楼主发贴辛苦了,谢谢楼主分享!我觉得蓝光电影网是注册对了!
回复

使用道具 举报

蓝光币
508
发表于 2024-4-16 16:19:23 | 显示全部楼层
谢谢分享
回复

使用道具 举报

蓝光币
1015
发表于 2024-4-18 06:54:12 | 显示全部楼层

既然你诚信诚意的推荐了,那我就勉为其难的看看吧!蓝光电影网不走平凡路。
回复

使用道具 举报

懒得打字嘛,点击右侧快捷回复 【右侧内容,后台自定义】
您需要登录后才可以回帖 登录 | 立即加入

本版积分规则

Archiver| |网站地图

Copyright © 2024 Comsenz Inc. Powered by 蓝光电影网

本站内容由用户自主分享和转载自互联网,转载目的在于传递更多信息,并不代表本网赞同其观点和对其真实性负责。

如有侵权、违反国家法律政策行为,请联系我们,我们会第一时间及时清除和处理!

举报反馈邮箱:4k1080.com@gmail.com

快速回复 返回顶部 返回列表