找回密码

蓝光电影网

查看: 75|回复: 0

[剧情] 鲁邦的女儿.Lupins.Daughter.2021.JAPANESE.1080p.BluRay.x264.DTS-iKiW 9.74GB

[复制链接]
蓝光币
1078
发表于 2023-1-11 22:20:51 | 显示全部楼层 |阅读模式


◎标  题 鲁邦的女儿
◎译  名 鲁邦的女儿电影版  /  戏院版 鲁邦的女儿
◎片  名 ルパンの娘
◎年  代 2021
◎产  地 日本
◎类  别 剧情 / 笑剧 / 恋爱
◎语  言 日语
◎上映日期 2021-10-15
◎IMDb评分 5.1/10 (50人评价)
◎IMDb链接 https://www.imdb.com/title/tt15033850/
◎豆瓣评分 5.9/10 (141人评价)
◎豆瓣链接 https://movie.douban.com/subject/35275670/
◎导  演 武内英树
◎编  剧 德永友一
◎演  员 磨赤儿
       桥本环奈
       渡部笃郎
       濑户康史
       深田恭子
       栗原类
       小泽真珠
       观月亚理莎
       藤冈弘
       我修院达也
       竹原芳子
       大贯勇辅
       信太昌之
       大鹤一枝
       小畑乃乃
◎简  介
  深田恭子主演的《鲁邦的女儿》将拍摄电影版,该剧改编自横关大的同名小说,报告身世小偷世家的三云华(深田恭子饰)和差人世家的儿子樱庭和马(濑户康史饰)的恋爱故事,已经播放到第二季,深田恭子、濑户康史、桥本...
  1. Video
  2. ID                                       : 1
  3. Format                                   : AVC
  4. Format/Info                              : Advanced Video Codec
  5. Format profile                           : [email protected]
  6. Format settings                          : CABAC / 4 Ref Frames
  7. Format settings, CABAC                   : Yes
  8. Format settings, Reference frames        : 4 frames
  9. Codec ID                                 : V_MPEG4/ISO/AVC
  10. Duration                                 : 1 h 49 min
  11. Bit rate                                 : 11.2 Mb/s
  12. Width                                    : 1 920 pixels
  13. Height                                   : 1 038 pixels
  14. Display aspect ratio                     : 1.85:1
  15. Frame rate mode                          : Constant
  16. Frame rate                               : 23.976 (24000/1001) FPS
  17. Color space                              : YUV
  18. Chroma subsampling                       : 4:2:0
  19. Bit depth                                : 8 bits
  20. Scan type                                : Progressive
  21. Bits/(Pixel*Frame)                       : 0.234
  22. Stream size                              : 8.58 GiB (88%)
  23. Title                                    : Jubowo @ WiKi
  24. Writing library                          : x264 core 129 r2245+704+36 8e61944 tMod+MixAQ [[email protected]:2:0 X86_64]
  25. Encoding settings                        : cabac=1 / ref=4 / deblock=1:-3:-3 / analyse=0x3:0x133 / me=umh / subme=11 / psy=1 / fade_compensate=0.00 / psy_rd=1.00:0.10 / mixed_ref=1 / me_range=64 / chroma_me=1 / trellis=2 / 8x8dct=1 / cqm=0 / deadzone=21,11 / fast_pskip=0 / chroma_qp_offset=-3 / threads=18 / lookahead_threads=3 / sliced_threads=0 / nr=0 / decimate=0 / interlaced=0 / bluray_compat=0 / constrained_intra=0 / fgo=0 / bframes=12 / b_pyramid=2 / b_adapt=2 / b_bias=0 / direct=3 / weightb=1 / open_gop=0 / weightp=2 / keyint=250 / keyint_min=23 / scenecut=40 / intra_refresh=0 / rc=2pass / mbtree=0 / bitrate=11192 / ratetol=1.0 / qcomp=0.70 / qpmin=0 / qpmax=69 / qpstep=4 / cplxblur=20.0 / qblur=0.5 / ip_ratio=1.40 / pb_ratio=1.30 / aq=1 / aq-strength=0.90 / aq-sensitivity=10.00 / aq-ifactor=1.00 / aq-pfactor=1.00 / aq-bfactor=1.00 / aq2=0
  26. Language                                 : Japanese
  27. Default                                  : Yes
  28. Forced                                   : No
  29. Audio
  30. ID                                       : 2
  31. Format                                   : DTS
  32. Format/Info                              : Digital Theater Systems
  33. Codec ID                                 : A_DTS
  34. Duration                                 : 1 h 49 min
  35. Bit rate mode                            : Constant
  36. Bit rate                                 : 1 509 kb/s
  37. Channel(s)                               : 6 channels
  38. Channel layout                           : C L R Ls Rs LFE
  39. Sampling rate                            : 48.0 kHz
  40. Frame rate                               : 93.750 FPS (512 SPF)
  41. Bit depth                                : 24 bits
  42. Compression mode                         : Lossy
  43. Stream size                              : 1.16 GiB (12%)
  44. Language                                 : Japanese
  45. Default                                  : Yes
  46. Forced                                   : No
  47. Text
  48. ID                                       : 3
  49. Format                                   : UTF-8
  50. Codec ID                                 : S_TEXT/UTF8
  51. Codec ID/Info                            : UTF-8 Plain Text
  52. Duration                                 : 1 h 44 min
  53. Bit rate                                 : 53 b/s
  54. Frame rate                               : 0.224 FPS
  55. Count of elements                        : 1411
  56. Stream size                              : 41.4 KiB (0%)
  57. Language                                 : English
  58. Default                                  : No
  59. Forced                                   : No
  60. Menu
  61. 00:00:00.000                             : en:Chapter 01
  62. 00:01:45.147                             : en:Chapter 02
  63. 00:08:00.772                             : en:Chapter 03
  64. 00:10:57.073                             : en:Chapter 04
  65. 00:13:24.053                             : en:Chapter 05
  66. 00:14:11.809                             : en:Chapter 06
  67. 00:17:20.623                             : en:Chapter 07
  68. 00:20:17.466                             : en:Chapter 08
  69. 00:23:37.625                             : en:Chapter 09
  70. 00:26:25.167                             : en:Chapter 10
  71. 00:30:15.272                             : en:Chapter 11
  72. 00:33:22.500                             : en:Chapter 12
  73. 00:40:49.238                             : en:Chapter 13
  74. 00:44:21.701                             : en:Chapter 14
  75. 00:52:19.053                             : en:Chapter 15
  76. 01:00:40.428                             : en:Chapter 16
  77. 01:07:21.871                             : en:Chapter 17
  78. 01:12:17.041                             : en:Chapter 18
  79. 01:21:12.201                             : en:Chapter 19
  80. 01:24:08.585                             : en:Chapter 20
  81. 01:25:12.858                             : en:Chapter 21
  82. 01:31:36.199                             : en:Chapter 22
  83. 01:38:40.164                             : en:Chapter 23
  84. 01:45:05.341                             : en:Chapter 24
复制代码











回复

使用道具 举报

懒得打字嘛,点击右侧快捷回复 【右侧内容,后台自定义】
您需要登录后才可以回帖 登录 | 立即加入

本版积分规则

Archiver|小黑屋| 蓝光电影网 |网站地图

Copyright © 2021 Comsenz Inc. Powered by 蓝光电影网

蓝光电影网

本站内容由用户自主分享和转载自互联网,转载目的在于传递更多信息,并不代表本网赞同其观点和对其真实性负责。

如有侵权、违反国家法律政策行为,请联系我们,我们会第一时间及时清除和处理!

举报反馈邮箱:[email protected]

快速回复 返回顶部 返回列表