找回密码

蓝光电影网

查看: 52|回复: 0

[2160p-WEB] 分手的决心.Decision.to.Leave.2022.KOREAN.2160p.WEB-DL.DD5.1.DV.MP4.x265-DVSUX 17.71GB

[复制链接]
蓝光币
1078
发表于 2023-1-12 06:16:16 | 显示全部楼层 |阅读模式


◎标  题 分手的决心
◎译  名 报复式分手 / Decision to Leave
◎片  名 헤어질 결심
◎年  代 2022
◎产  地 韩国
◎类  别 剧情 / 悬疑 / 犯罪
◎语  言 韩语 / 汉语普通话
◎上映日期 2022-05-23(戛纳电影节) / 2022-06-29(韩国)
◎IMDb评分 7.3/10 (22971人评价)
◎IMDb链接 https://www.imdb.com/title/tt12477480/
◎豆瓣评分 7.6/10 (229666人评价)
◎豆瓣链接 https://movie.douban.com/subject/35073886/
◎片  长 138分钟
◎导  演 朴赞郁 Chan-wook Park
◎编  剧 郑瑞景 Seo-kyeong Jeong
       朴赞郁 Chan-wook Park
◎演  员 汤唯 Wei Tang
       朴海日 Hae-il Park
       李贞贤 Jung-hyun Lee
       朴勇宇 Yong-woo Park
       高庚杓 Kyung-pyo Go
       金信英 Kim Sin-yeong
       郑永琡 Yeong-suk Jeong
       刘承睦 Yoo Seung-Mok
       朴正民 Jeong-min Park
       徐现宇 Seo Hyeon-woo
       郑伊书 Yi-Seo Jung
       李学周 Hak-joo Lee
       郑素利 So-ri Jung
       黄载沅 Hwang Jae-won
       刘台午 Teo Yoo
       崔代勋 Dae-hoon Choi
       高旻示 Min-si Go
       郑荷昙 Hadam Jeong
       陈庸旭 Jin Yong-wook
       朱仁英 In-yeong Joo
       权爀 Hyuk Kwon
       朴赞郁 Chan-wook Park
       李美敬 Miky Lee
       曹英沃 Yeong-wook Jo
       金智龙 Ji-yong Kim
       金尚范 Sang-bum Kim
       柳星姬 Seong-hie Ryu
       金石源 Suk-won Kim
◎简  介
  在山区观察一路谋杀案的海俊(朴海日 饰)碰到了死者的妻子瑞莱(汤唯 饰)。“我担忧他没有从山上返来,以为他终极能够会死。”瑞莱对丈夫的死没有表示出任何冲动的迹象,而且她的行为与哀痛的亲戚截然不同,警方以为她就是怀疑人。当海俊审问和监视瑞莱时,他意想到他正在逐步对她发生兴 趣。与此同时,虽然被控告犯罪,但瑞莱起头对海俊采纳大胆的行动。一个隐瞒真相的怀疑人。同时想要思疑怀疑人的侦察。他们有了分手的决议。
  1. Video
  2. ID                                       : 1
  3. Format                                   : HEVC
  4. Format/Info                              : High Efficiency Video Coding
  5. Format profile                           : Main [email protected]@Main
  6. HDR format                               : Dolby Vision, Version 1.0, dvhe.05.06, BL+RPU
  7. Codec ID                                 : dvhe
  8. Codec ID/Info                            : High Efficiency Video Coding with Dolby Vision
  9. Duration                                 : 2 h 18 min
  10. Bit rate                                 : 17.9 Mb/s
  11. Width                                    : 3 840 pixels
  12. Height                                   : 2 160 pixels
  13. Display aspect ratio                     : 16:9
  14. Frame rate mode                          : Constant
  15. Frame rate                               : 24.000 FPS
  16. Color space                              : YUV
  17. Chroma subsampling                       : 4:2:0
  18. Bit depth                                : 10 bits
  19. Bits/(Pixel*Frame)                       : 0.090
  20. Stream size                              : 17.3 GiB (98%)
  21. Default                                  : Yes
  22. Alternate group                          : 1
  23. Encoded date                             : UTC 2023-01-11 08:21:56
  24. Tagged date                              : UTC 2023-01-11 08:26:51
  25. Color range                              : Full
  26. Codec configuration box                  : hvcC+dvcC
  27. Audio
  28. ID                                       : 2
  29. Format                                   : AC-3
  30. Format/Info                              : Audio Coding 3
  31. Commercial name                          : Dolby Digital
  32. Format settings                          : Dolby Surround EX
  33. Codec ID                                 : ac-3
  34. Duration                                 : 2 h 18 min
  35. Bit rate mode                            : Constant
  36. Bit rate                                 : 384 kb/s
  37. Maximum bit rate                         : 406 kb/s
  38. Channel(s)                               : 6 channels
  39. Channel layout                           : L R C LFE Ls Rs
  40. Sampling rate                            : 48.0 kHz
  41. Frame rate                               : 31.250 FPS (1536 SPF)
  42. Compression mode                         : Lossy
  43. Stream size                              : 380 MiB (2%)
  44. Title                                    : English
  45. Language                                 : English
  46. Service kind                             : Complete Main
  47. Default                                  : Yes
  48. Alternate group                          : 1
  49. Tagged date                              : UTC 2023-01-11 08:26:51
  50. Text #1
  51. ID                                       : 3
  52. Format                                   : Timed Text
  53. Codec ID                                 : tx3g
  54. Duration                                 : 2 h 12 min
  55. Bit rate mode                            : Variable
  56. Bit rate                                 : 51 b/s
  57. Frame rate                               : 0.294 FPS
  58. Stream size                              : 49.4 KiB (0%)
  59. Title                                    : English
  60. Language                                 : English
  61. Forced                                   : No
  62. Encoded date                             : UTC 2023-01-11 08:26:51
  63. Tagged date                              : UTC 2023-01-11 08:26:51
  64. Text #2
  65. ID                                       : 4
  66. Format                                   : Timed Text
  67. Codec ID                                 : tx3g
  68. Duration                                 : 2 h 17 min
  69. Bit rate mode                            : Variable
  70. Bit rate                                 : 76 b/s
  71. Frame rate                               : 0.487 FPS
  72. Stream size                              : 76.6 KiB (0%)
  73. Title                                    : Korean
  74. Language                                 : Korean
  75. Forced                                   : No
  76. Encoded date                             : UTC 2023-01-11 08:26:51
  77. Tagged date                              : UTC 2023-01-11 08:26:51
  78. Text #3
  79. ID                                       : 5
  80. Format                                   : Timed Text
  81. Codec ID                                 : tx3g
  82. Duration                                 : 2 h 12 min
  83. Bit rate mode                            : Variable
  84. Bit rate                                 : 49 b/s
  85. Frame rate                               : 0.336 FPS
  86. Stream size                              : 47.9 KiB (0%)
  87. Title                                    : Korean
  88. Language                                 : Korean
  89. Forced                                   : No
  90. Encoded date                             : UTC 2023-01-11 08:26:51
  91. Tagged date                              : UTC 2023-01-11 08:26:51
  92. Text #4
  93. ID                                       : 6
  94. Format                                   : Timed Text
  95. Codec ID                                 : tx3g
  96. Duration                                 : 1 h 10 min
  97. Bit rate mode                            : Variable
  98. Bit rate                                 : 0 b/s
  99. Frame rate                               : 0.002 FPS
  100. Stream size                              : 83.0 Bytes (0%)
  101. Title                                    : Korean
  102. Language                                 : Korean
  103. Forced                                   : No
  104. Encoded date                             : UTC 2023-01-11 08:26:51
  105. Tagged date                              : UTC 2023-01-11 08:26:51
复制代码











回复

使用道具 举报

懒得打字嘛,点击右侧快捷回复 【右侧内容,后台自定义】
您需要登录后才可以回帖 登录 | 立即加入

本版积分规则

Archiver|小黑屋| 蓝光电影网 |网站地图

Copyright © 2021 Comsenz Inc. Powered by 蓝光电影网

蓝光电影网

本站内容由用户自主分享和转载自互联网,转载目的在于传递更多信息,并不代表本网赞同其观点和对其真实性负责。

如有侵权、违反国家法律政策行为,请联系我们,我们会第一时间及时清除和处理!

举报反馈邮箱:[email protected]

快速回复 返回顶部 返回列表