找回密码

蓝光电影网

查看: 81|回复: 2

[喜剧] 采花贼.Sex.Thief.1973.REMASTERED.720p.BluRay.x264-GAZER 5.69GB

[复制链接]
蓝光币
1082
发表于 2023-1-13 16:08:33 | 显示全部楼层 |阅读模式


◎标  题 采花贼
◎译  名 艳女杀手
◎片  名 The Sex Thief
◎年  代 1973
◎产  地 英国
◎类  别 笑剧 / Adult
◎语  言 英语
◎上映日期 1977-03-11
◎IMDb评分 4.6/10 (328人评价)
◎IMDb链接 https://www.imdb.com/title/tt0070674/
◎豆瓣评分 5.6/10 (96人评价)
◎豆瓣链接 https://movie.douban.com/subject/1851446/
◎片  长 89 分钟
◎导  演 马丁·坎贝尔 Martin Campbell
◎编  剧 迈克尔·阿姆斯特朗 Michael Armstrong
       图德·盖茨 Tudor Gates
◎演  员 Jennifer Westbrook Jennifer Westbrook
       大卫·沃贝克 David Warbeck
       Gerald Taylor Gerald Taylor
       迈克尔·阿姆斯特朗 Michael Armstrong
       Henry Rayner Henry Rayner
       Terence Edmond Terence Edmond
       戴安·吉恩 Diane Keen
       Harvey Hall Harvey Hall
       迪尔德丽·科斯特洛 Deirdre Costello
       托尼·诺布尔 Tony Noble
◎简  介
  作为英国70年月性束缚期间最出色的作品,本片围绕一个色情淫荡的蒙面采花贼展开,他勾引女民气甘情愿地跟他上床。由始至终他都被两个倒霉的差人无情地追捕却频频得以逃走,另一方面他不时地对丹麦色情女星的阴毛作出使人震动的评价。                                    
                                幕后建造                                    
                                这部电影童贞作出自Martin Campbell之手,他现在是好莱坞炙手可热的导演,前后拍摄了《黄金眼》、《蒙面佐罗》和《皇家赌场》等贸易大建造。
  1. Video
  2. ID                                       : 1
  3. Format                                   : AVC
  4. Format/Info                              : Advanced Video Codec
  5. Format profile                           : [email protected]
  6. Format settings                          : CABAC / 9 Ref Frames
  7. Format settings, CABAC                   : Yes
  8. Format settings, Reference frames        : 9 frames
  9. Codec ID                                 : V_MPEG4/ISO/AVC
  10. Duration                                 : 1 h 33 min
  11. Bit rate                                 : 7 563 kb/s
  12. Width                                    : 1 200 pixels
  13. Height                                   : 720 pixels
  14. Display aspect ratio                     : 5:3
  15. Frame rate mode                          : Constant
  16. Frame rate                               : 23.976 (24000/1001) FPS
  17. Color space                              : YUV
  18. Chroma subsampling                       : 4:2:0
  19. Bit depth                                : 8 bits
  20. Scan type                                : Progressive
  21. Bits/(Pixel*Frame)                       : 0.365
  22. Stream size                              : 4.92 GiB (86%)
  23. Writing library                          : x264 core 164 r3102 416e3eb
  24. Encoding settings                        : cabac=1 / ref=9 / deblock=1:-3:-3 / analyse=0x3:0x133 / me=umh / subme=10 / psy=1 / psy_rd=1.20:0.00 / mixed_ref=1 / me_range=24 / chroma_me=1 / trellis=2 / 8x8dct=1 / cqm=0 / deadzone=21,11 / fast_pskip=0 / chroma_qp_offset=-2 / threads=22 / lookahead_threads=3 / sliced_threads=0 / nr=0 / decimate=0 / interlaced=0 / bluray_compat=0 / constrained_intra=0 / bframes=8 / b_pyramid=2 / b_adapt=2 / b_bias=0 / direct=3 / weightb=1 / open_gop=0 / weightp=2 / keyint=250 / keyint_min=23 / scenecut=40 / intra_refresh=0 / rc_lookahead=60 / rc=crf / mbtree=1 / crf=16.0 / qcomp=0.60 / qpmin=0 / qpmax=69 / qpstep=4 / ip_ratio=1.40 / aq=3:0.90
  25. Default                                  : Yes
  26. Forced                                   : No
  27. Color range                              : Limited
  28. Matrix coefficients                      : BT.709
  29. Audio #1
  30. ID                                       : 2
  31. Format                                   : FLAC
  32. Format/Info                              : Free Lossless Audio Codec
  33. Codec ID                                 : A_FLAC
  34. Duration                                 : 1 h 33 min
  35. Bit rate mode                            : Variable
  36. Bit rate                                 : 1 071 kb/s
  37. Channel(s)                               : 2 channels
  38. Channel layout                           : L R
  39. Sampling rate                            : 48.0 kHz
  40. Frame rate                               : 11.719 FPS (4096 SPF)
  41. Bit depth                                : 24 bits
  42. Compression mode                         : Lossless
  43. Stream size                              : 713 MiB (12%)
  44. Writing library                          : libFLAC 1.3.3 (UTC 2019-08-04)
  45. Language                                 : English
  46. Default                                  : Yes
  47. Forced                                   : No
  48. Audio #2
  49. ID                                       : 3
  50. Format                                   : AAC LC
  51. Format/Info                              : Advanced Audio Codec Low Complexity
  52. Codec ID                                 : A_AAC-2
  53. Duration                                 : 1 h 33 min
  54. Bit rate                                 : 90.9 kb/s
  55. Channel(s)                               : 2 channels
  56. Channel layout                           : L R
  57. Sampling rate                            : 48.0 kHz
  58. Frame rate                               : 46.875 FPS (1024 SPF)
  59. Compression mode                         : Lossy
  60. Delay relative to video                  : 20 ms
  61. Stream size                              : 60.6 MiB (1%)
  62. Title                                    : Commentary
  63. Language                                 : English
  64. Default                                  : No
  65. Forced                                   : No
  66. Text
  67. ID                                       : 4
  68. Format                                   : PGS
  69. Muxing mode                              : zlib
  70. Codec ID                                 : S_HDMV/PGS
  71. Codec ID/Info                            : Picture based subtitle format used on BDs/HD-DVDs
  72. Duration                                 : 1 h 31 min
  73. Bit rate                                 : 48.4 kb/s
  74. Count of elements                        : 2771
  75. Stream size                              : 31.8 MiB (1%)
  76. Title                                    : SDH
  77. Language                                 : English
  78. Default                                  : No
  79. Forced                                   : No
  80. Menu
  81. 00:00:00.000                             : Chapter 01
  82. 00:11:18.678                             : Chapter 02
  83. 00:29:16.588                             : Chapter 03 / Chapter 04
  84. 00:39:47.802                             : Chapter 05
  85. 00:51:42.057                             : Chapter 06
  86. 00:59:35.822                             : Chapter 07
  87. 01:08:20.430                             : Chapter 08
  88. 01:16:26.832                             : Chapter 09
  89. 01:22:53.635                             : Chapter 10
  90. 01:31:53.341                             : Chapter 11
  91. 01:33:09.000                             : Chapter 12
复制代码









回复

使用道具 举报

蓝光币
229
发表于 2023-1-14 03:25:19 | 显示全部楼层
还是国外的菜花啊
回复 支持 反对

使用道具 举报

蓝光币
169
发表于 2023-1-14 12:40:29 来自手机 | 显示全部楼层
厉害啊啊啊
回复 支持 反对

使用道具 举报

懒得打字嘛,点击右侧快捷回复 【右侧内容,后台自定义】
您需要登录后才可以回帖 登录 | 立即加入

本版积分规则

Archiver|小黑屋| 蓝光电影网 |网站地图

Copyright © 2021 Comsenz Inc. Powered by 蓝光电影网

蓝光电影网

本站内容由用户自主分享和转载自互联网,转载目的在于传递更多信息,并不代表本网赞同其观点和对其真实性负责。

如有侵权、违反国家法律政策行为,请联系我们,我们会第一时间及时清除和处理!

举报反馈邮箱:[email protected]

快速回复 返回顶部 返回列表