找回密码

查看: 962|回复: 6

[REMUX.HEVC] 高地人.Highlander.1986.2160p.BluRay.REMUX.HEVC.DTS-HD.MA.5.1-Asmo 67.65GB

[复制链接]
蓝光币
2048
发表于 2024-2-24 18:17:17 | 显示全部楼层 |阅读模式


◎译  名 高地人 / 高地人1 / 时空奇兵 / 应战者 / 高地奇人
◎片  名 Highlander
◎年  代 1986
◎产  地 英国 / 美国
◎类  别 行动 / 奇异 / 冒险
◎语  言 英语
◎上映日期 1986-03-07
◎IMDb评星  ★★★★★★★☆☆☆
◎IMDb评分  7.0/10 from 146,225 users
◎IMDb链接  https://www.imdb.com/title/tt0091203/
◎豆瓣评星 ★★★☆☆
◎豆瓣评分 6.2/10 from 648 users
◎豆瓣链接 https://movie.douban.com/subject/1300682/
◎片  长 111分钟 / 117分钟(导演剪辑版)
◎导  演 拉塞尔·穆卡希 / Russell Mulcahy
◎演  员 克里斯多弗·兰伯特 / Christopher Lambert | 饰 Connor MacLeod
      罗珊妮·哈特 / Roxanne Hart | 饰 Brenda Wyatt
      克兰西·布朗 / Clancy Brown | 饰 Kurgan
      肖恩·康纳利 / Sean Connery | 饰 Ramirez
      比蒂·埃德尼 / Beatie Edney | 饰 Heather
      艾伦·诺斯 / Alan North | 饰 Lt. Frank Moran
      希拉·吉什 / Sheila Gish | 饰 Rachel Ellenstein
      乔·鲍里托 / Jon Polito | 饰 Det. Walter Bedsoe
      休·夸希 / Hugh Quarshie | 饰 Sunda Kastagir
      克里斯托弗·马尔科姆 / Christopher Malcolm | 饰 Kirk Matunas
      彼得·戴蒙德 / Peter Diamond | 饰 Iman Fasil
      比利·哈特曼 / Billy Hartman | 饰 Dugal MacLeod
      詹姆斯·科兹莫 / James Cosmo | 饰 Angus MacLeod
      西莉亚·伊姆里 / Celia Imrie | 饰 Kate
      阿利斯泰尔·芬德利 / Alistair Findlay | 饰 Chief Murdoch
      詹姆斯·麦肯纳 / James McKenna | 饰 Father Rainey
      约翰·卡萨迪 / John Cassady | 饰 Kenny
      伊恩·雷迪丁顿 / Ian Reddington | 饰 Bassett
      赛恩·都铎·欧文 / Sion Tudor Owen | 饰 Hotchkiss
      达米安·利克 / Damien Leake | 饰 Tony
      罗恩·贝格拉斯 / Ron Berglas | 饰 Archivist
      路易斯·古斯 / Louis Guss | 饰 Newsvendor
      安东尼·曼尼诺 / Anthony Mannino | 饰 Boisterous Drunk
      安东尼·福斯科 / Anthony Fusco | 饰 Barman
      科琳娜·罗素 / Corinne Russell | 饰 Candy
      吉姆·布朗泽尔 / Jim Brunzell | 饰 Self
      山姆·道格拉斯 / Sam Douglas | 饰 NY Cop
      山姆·法图 / Sam Fatu | 饰 Professional Wrestler
      哈里·弗雷德尔 / Harry Fielder | 饰 Hospital Guard
      格雷格·加涅 / Greg Gagne | 饰 Self
      泰瑞·高堤 / Terry 'Bam Bam' Gordy | 饰 Professional Wrestler
      埃德·蒙塔佛 / Ed Montalvo | 饰 Street Tough
      拉塞尔·穆卡希 / Russell Mulcahy | 饰 Sidewalk Pedestrian Hit by Kurgan's Car
      迈克尔·塞茨 / Michael Seitz | 饰 Wrestler
◎编  剧 格雷戈里·威顿 / Gregory Widen
      彼得·贝尔伍德 / Peter Bellwood
      拉里·弗格森 / Larry Ferguson
◎制  片  人 威廉·N·潘泽 / William N. Panzer
      约翰·H·斯塔克 / John H. Starke
◎音  乐 迈克尔·凯曼 / Michael Kamen
◎摄  影 格里·费希尔 / Gerry Fisher
◎剪  辑 彼得·霍尼斯 / Peter Honess
◎选  角 Diane Dimeo Diane Dimeo
      Michael McLean Michael McLean
◎美  术 伊恩·惠特克 / Ian Whittaker
      蒂姆·哈钦森 / Tim Hutchinson
      Allan Cameron Allan Cameron
◎服  装 詹姆斯·艾奇逊 / James Acheson
◎化  妆 洛伊斯·布尔维尔 / Lois Burwell
      Jeanette Freeman Jeanette Freeman
      Geoffrey Portass Geoffrey Portass
◎副  导  演 斯蒂芬·霍普金斯 / Stephen Hopkins
      David Tringham David Tringham
◎视觉殊效 彼得·江 / Peter Chiang
      Tim Walton Tim Walton
      Chris Blunden Chris Blunden
◎简  介 
  一九八六年,曼克顿市地下停车场里,两人正在作一场生死战,但居然在二十世纪里还有人利用现代兵器交锋……这故事追溯至一五三六年,一位苏格兰籍农民在一之战争中受了伤,但他的伤口竟不药而愈。他发现自己具有一具不死之身,只要他的头被斩下才会灭亡!在另一方面,一位西班牙贵族亦具有不死异能,他为了令自己成为终极霸主,不惜花上四百年的时候去追随另一个不死人,跟他决一死战……
  1. Highlander.1986.2160p.BluRay.REMUX.HEVC.DTS-HD.MA.5.1-Asmo
  2. Stream #0:0(eng): Video: hevc (Main 10), yuv420p10le(tv, bt2020nc/bt2020/smpte2084), 3840x2160 [SAR 1:1 DAR 16:9], 23.98 fps, 23.98 tbr, 1k tbn, 23.98 tbc (default)
  3. Stream #0:1(eng): Audio: dts (DTS-HD MA), 48000 Hz, 5.1(side), s32p (24 bit) (default)
  4. Stream #0:2(pol): Subtitle: hdmv_pgs_subtitle
  5. Stream #0:3(eng): Subtitle: hdmv_pgs_subtitle
复制代码









回复

使用道具 举报

蓝光币
0
发表于 2024-2-25 08:51:14 | 显示全部楼层

楼主太厉害了!楼主,电影应该很好看我觉得蓝光电影网真是个好地方!
回复

使用道具 举报

蓝光币
277
发表于 2024-2-25 13:49:44 | 显示全部楼层
楼主太厉害了!楼主,电影应该很好看我觉得蓝光电影网真是个好地方!
回复

使用道具 举报

蓝光币
208
发表于 2024-2-25 15:05:20 | 显示全部楼层

这个帖子不回对不起自己!我想我是一天也不能离开蓝光电影网。
回复

使用道具 举报

蓝光币
947
发表于 2024-2-25 17:54:52 | 显示全部楼层

楼主太厉害了!楼主,电影应该很好看我觉得蓝光电影网真是个好地方!
回复

使用道具 举报

蓝光币
4845
发表于 2024-2-25 21:12:06 | 显示全部楼层

我看不错噢 谢谢楼主!蓝光电影网越来越好!
回复

使用道具 举报

蓝光币
83
发表于 2024-2-26 08:05:55 | 显示全部楼层
楼主发贴辛苦了,谢谢楼主分享!我觉得蓝光电影网是注册对了!
回复

使用道具 举报

懒得打字嘛,点击右侧快捷回复 【右侧内容,后台自定义】
您需要登录后才可以回帖 登录 | 立即加入

本版积分规则

Archiver| |网站地图

Copyright © 2024 Comsenz Inc. Powered by 蓝光电影网

本站内容由用户自主分享和转载自互联网,转载目的在于传递更多信息,并不代表本网赞同其观点和对其真实性负责。

如有侵权、违反国家法律政策行为,请联系我们,我们会第一时间及时清除和处理!

举报反馈邮箱:4k1080.com@gmail.com

快速回复 返回顶部 返回列表