找回密码

查看: 350|回复: 0

[剧情] 天劫余生.Alive.1993.1080p.BluRay.REMUX.AVC.DTS-HD.MA.5.1-Asmo 17.20GB

[复制链接]
蓝光币
1925
发表于 2024-2-24 18:20:30 | 显示全部楼层 |阅读模式


◎译  名 天劫余生 / 浩劫余生 / 空难惊魂 / 我们要在世回去
◎片  名 Alive
◎年  代 1993
◎产  地 美国
◎类  别 剧情 / 行动 / 冒险 / 灾难 / 活动
◎语  言 英语
◎上映日期 1993-01-15
◎IMDb评星  ★★★★★★★☆☆☆
◎IMDb评分  7.1/10 from 63,720 users
◎IMDb链接  https://www.imdb.com/title/tt0106246/
◎豆瓣评星 ★★★★☆
◎豆瓣评分 8.1/10 from 15,345 users
◎豆瓣链接 https://movie.douban.com/subject/1299904/
◎片  长 127 分钟
◎导  演 弗兰克·马歇尔 / Frank Marshall
◎演  员 伊桑·霍克 / Ethan Hawke
      文森特·斯帕诺 / Vincent Spano
      约什·汉密尔顿 / Josh Hamilton
      约翰·纽顿 / John Newton
      伊里纳·道格拉斯 / Illeana Douglas
      Silvio Pollio Silvio Pollio
      大卫·库比特 / David Cubitt
      弗兰克佩莱格里诺 / Frank Pellegrino
      何塞·祖尼加 / José Zúñiga
      乔什·卢卡斯 / Josh Lucas
      麦克·狄罗伦佐 / Michael DeLorenzo
      凯文·布雷斯纳汉 / Kevin Breznahan
      约翰·马尔科维奇 / John Malkovich
      丹尼·努齐 / Danny Nucci
      Jake Carpenter Jake Carpenter
      戈登·科里 / Gordon Currie
      理查德·伊安·考克斯 / Richard Ian Cox
      艾利·凯特斯 / Ele Keats
      Sam Behrens Sam Behrens
      布鲁斯·拉姆塞 / Bruce Ramsay
      杰瑞·瓦塞尔曼 / Jerry Wasserman
      查德·威列 / Chad Willett
      Seth Arnett Seth Arnett
      约翰·卡西尼 / John Cassini
      杰克·诺斯沃迪 / Jack Noseworthy
◎编  剧 约翰·帕特里克·尚利 / John Patrick Shanley
      皮尔斯·保罗·里德 / Piers Paul Read
◎制  片  人 布鲁斯·科恩 / Bruce Cohen
      罗伯特·沃茨 / Robert Watts
      凯瑟琳·肯尼迪 / Kathleen Kennedy
◎音  乐 詹姆斯·纽顿·霍华德 / James Newton Howard
◎摄  影 Peter James Peter James
◎剪  辑 迈克尔·卡恩 / Michael Kahn
◎选  角 Valorie Massalas Valorie Massalas
      迈克·芬顿 / Mike Fenton
◎美  术 诺曼·雷诺兹 / Norman Reynolds
      弗雷德·侯尔 / Fred Hole
◎服  装 Jennifer L. Parsons Jennifer L. Parsons
◎化  妆 尼克·杜德曼 / Nick Dudman
      Donna Bis Donna Bis
      戈登·J·史姑娘 / Gordon J. Smith
      Russell Cate Russell Cate
      Raymond Mackintosh Raymond Mackintosh
      罗伯特·A·潘蒂尼 / Robert A. Pandini
◎副  导  演 Katterli Frauenfelder Katterli Frauenfelder
      诺曼·雷诺兹 / Norman Reynolds
      比尔·巴纳文 / Bill Bannerman
      理查德·科尔曼 / Richard Coleman
◎视觉殊效 Jim Morris Jim Morris
      斯科特·法勒 /   Scott Farrar
      Vance Piper Vance Piper
      斯图尔特·罗伯特森 / Stuart Robertson
      比尔·乔治 / Bill George
      Michael Gleason Michael Gleason
      斯科特·罗斯 / Scott Ross
◎简  介 
  1972年10月13日,赴智利角逐的一支乌拉圭橄榄球队所搭乘的飞机在安第斯山脉失事。生还的二十多位幸存者面临雪窖冰天的保存情况,竭尽尽力地以求能在世走出这座荒无人烟的灭亡之地。在履历了满心希望的期待着救济队伍无果以后,失望地他们只能面临着残暴的究竟,赖以维生的食品日渐削减,海拔天气严寒严苛,遭受好几次雪崩以及心里对灭亡布满的庞大恐惧。在剧烈的会商和心里挣扎后,他们起头尝试一些不成能做到的工作,分食死尸。终究,在飞机坠毁五十多天今后,天气渐渐转暖,救济队终究找到了他们。活下来的十六小我终究走出了这块灭亡之地,再一次与家人团圆在了一路。
  由美国导演弗兰克·马歇尔执导的灾难求生影片《天劫余生》,按照英国作家皮尔斯·保罗·里德的报告文学《在世:安第斯幸存者的故事》的实在事务改编而成。影片对于人性保存渴望的写实描画,曾一度激起美国社会对于生命与道德的剧烈探讨与辩说。
  1. Alive.1993.1080p.BluRay.REMUX.AVC.DTS-HD.MA.5.1-Asmo
  2. Stream #0:0(eng): Video: h264 (High), yuv420p(progressive), 1920x1080 [SAR 1:1 DAR 16:9], 23.98 fps, 23.98 tbr, 1k tbn, 47.95 tbc (default)
  3. Stream #0:1(eng): Audio: dts (DTS-HD MA), 48000 Hz, 5.1(side), s16p (default)
  4. Stream #0:2(pol): Subtitle: subrip
  5. Stream #0:3(eng): Subtitle: subrip
复制代码









回复

使用道具 举报

懒得打字嘛,点击右侧快捷回复 【右侧内容,后台自定义】
您需要登录后才可以回帖 登录 | 立即加入

本版积分规则

Archiver| |网站地图

Copyright © 2024 Comsenz Inc. Powered by 蓝光电影网

本站内容由用户自主分享和转载自互联网,转载目的在于传递更多信息,并不代表本网赞同其观点和对其真实性负责。

如有侵权、违反国家法律政策行为,请联系我们,我们会第一时间及时清除和处理!

举报反馈邮箱:4k1080.com@gmail.com

快速回复 返回顶部 返回列表