找回密码

查看: 627|回复: 0

[动作] 最终兵器:弓.War of the Arrows 2011 1080p BluRay REMUX AVC DTS-HD MA 5.1-FraMeSToR 27.75GB

[复制链接]
蓝光币
2048
发表于 2024-2-24 18:20:35 | 显示全部楼层 |阅读模式


◎译  名 终极兵器:弓 / 弓箭之战(台) / 最强兵器:弓 / War of the Arrows / Arrow, The Ultimate Weapon
◎片  名 최종병기 활
◎年  代 2011
◎产  地 韩国
◎类  别 行动 / 历史
◎语  言 韩语 / 满语
◎上映日期 2011-08-11
◎IMDb评星  ★★★★★★★☆☆☆
◎IMDb评分  7.1/10 from 12,750 users
◎IMDb链接  https://www.imdb.com/title/tt2025526/
◎豆瓣评星 ★★★✦☆
◎豆瓣评分 7.2/10 from 15,487 users
◎豆瓣链接 https://movie.douban.com/subject/5919548/
◎片  长 114分钟(韩国) / 122分钟(导演剪辑版)
◎导  演 金汉珉 / Han-min Kim
◎演  员 朴海日 / Hae-il Park
      柳承龙 / Seung-ryong Ryu
      大谷亮平 / Ryohei Otani
      文彩元 / Chae-won Moon
      朴基雄 / Ki-woong Park
      金武烈 / Moo-yeol Kim
      李汉伟 / Han-wi Lee
      李璟荣 / Kyeong-yeong Lee
      朴努植 / No-shik Park
      赵祐镇 / Woo-jin Jo | 饰 청 전령장교
      全敏书 / Min-seo Jeon
      李大卫 / David Lee
      姜恩珍 / Eunjin Kang
      朴明申 / Myung-shin Park
      尹栋焕 / Dong-hwan Yoon
      董允锡 / Dong Yoon-seok
      姜申河 / Shin-ha Kang | 饰 태평소 병사
◎编  剧 金汉珉 / Han-min Kim
◎音  乐 金泰成 / Tae-seong Kim
◎摄  影 金太诚 / Tae-Sung Kim
◎剪  辑 金昌洙 / Chang-ju Kim
◎副  导  演 郑世教 / Sekyo Jung
◎行动特技 张载旭 / Jang Jae-wook
      吴世永 / Se-yeong Oh
◎简  介 
  本片以“丙子胡乱”为布景。
  十三年前,忠臣崔平良以“叛逆”罪名遭到灭族,其一子一女南伊(朴海日 饰)与慈仁(文彩媛 饰)侥幸逃走,崔平良力战至死。南伊带着父亲的弓箭和嘱托,和妹妹投靠父亲至好金武善一家。时光荏苒,1636年,金武善之子瑞俊向慈仁求婚,因父亲遭受而悲观过活 的南伊深感作为崔家先人身份敏感,欲拒绝这门亲事,无法瑞俊一片诚意和金武善力主,崔、金两家喜结良缘,但是在大婚当日,后金入侵朝鲜。未几朝鲜仁祖投诚称臣,瑞俊和慈仁被满族军队掳走,具有出众射术的南伊自此沿路追踪,伺机搭救亲人,而南伊神出鬼没的狙杀与跟踪,亦引发了满族弓骑兵上将的留意……
◎获奖情况 
  第6届亚洲电影大奖 (2012)
  我最爱好的男女配角 我最爱好的男配角(提名) 朴海日
  最好男配角(提名) 朴海日
  第48届韩国电影大钟奖 (2011)
  最好影片(提名)
  最好男配角 朴海日
  最好新人女演员 文彩元
  最好摄影(提名) 金泰成
  最好美术(提名)
  最好打扮(提名)
  最好音效
  最好视觉结果
◎幕后揭秘
  影片的演员方面片方也可谓下足了功夫。由于在《极乐岛杀人事务》中的愉快合作,《弓》的剧本尚在起草阶段,导演金韩民就敲定了男配角非朴海日不用。这个长于琢磨现代都会人复杂心机的男演员面临初次历剧应战也布满了期待,从客岁就起头停止箭术和骑马方面的练习,并全程无替人完成了一切的行动排场。性情演员柳承龙在片中饰演清代猛将,不但削发,还尽力苦练了一口满语,在骑射方面也投入了大量的精神,结果不俗。片中唯一女角——子仁由集清纯美与淑女气质于一身的文彩媛出演。该片也是她继《我们黉舍的ET》以后投入拍摄的第二部电影作品。金韩民也暗示,正是由于看了文彩媛在《风之花园》、《光辉的遗产》、《没关系,爸爸的女儿》等剧中的表演,才决议有她出演这个脚色,并获得剧组的全票经过。而文彩媛也将一悔改去的文雅形象,诠释一个风姿出色的巾帼豪杰。
  值得一提的是,日本艺人大谷庆彦也将有份参演该片。大谷庆彦以 Dunkin’Donuts的专属模特身份出道,并为韩国观众熟知,2006年出演了电视剧《Soulmate》,并以此为契机,接连出演了《东京,太阳雨》《回家路上》等多部韩剧。《弓》将是他的银幕童贞作。据悉,大谷本人对出演该片表示出了极高的热情,由于在日本历史剧的职位相当高,通常为非大牌不接的。虽然,在《弓》中他的脚色是一位嘶哑人士,无台词,但为了高质量完成片中行动排场,大谷也积极做了充实的预备。
  17世纪初,党争频仍,政局动乱,刚刚在明代帮助下竣事倭乱的朝鲜皇廷又面临辽东新兴的女真军事气力,羸弱的国力和尖锐的内外冲突,致使朝鲜国力衰败、生灵涂炭。1636年至1637年,清代入侵朝鲜,这是满族人自努尔哈赤建立后金以后第二次大范围入侵朝鲜的战争,韩国史乘称之为“丙子胡乱”。
  影片《弓》正是以此乱为历史布景,描画了亲人被清军劫为人质,并竭尽尽力展开救济的豪杰——南伊波涛壮阔的平生。影片除了史诗般恢弘的战争排场,最吸引眼球的就是花样百出精湛的箭术。众所周知,韩国一向是擅射民族,射箭不可是百姓体育项目,也在国际各大赛事展尽风骚,影片《弓》除了再现那段不胜回首的羞辱战史,也深度分解了弓箭在韩国历史上的卓重职位。
  导演金韩民最擅长的是惊悚题材,此前的《极乐岛杀人事务》《手机》都获得了不俗的票房成就,《弓》则是他的转型之作,希望借此将自己的题材范畴拓宽,出格是应战本身把握恢弘题材的才能。为了能更加实在地展现箭术的魅力,武术指导张春燮除翻阅了大量相关文献,还获得了国内射箭专业人士的帮助与指导,出格是古典箭术的要理和技能。演员们也接管了较长时候的箭术练习,虽然很多极专业的行动还需要技术分解,但根基的方法都获得了充实的把握。除了箭术,骑术也是演员们必备的技能。由于女真民族是彻完全底的顿时民族,在这场战争中,顿时交锋也成为最重要的组成部分。在骑术练习中,演员们几近全日与马匹为伍,实拍时,已可做到人马合一,完善无缺。由因而古装片,打扮外型方面剧组也请来了已经介入创作《朝鲜名侦察》《好家伙坏家伙希奇的家伙》《青燕》等片的美术总监权宥真,为片中人物打造了大量的战服、华服,出格是清代军队的打扮,更是参考了大量史料,采用蓝色绸缎配金丝缝纫剪裁,出来的结果尤其亮眼。
  1. General
  2. Complete name                            : War.of.the.Arrows.2011.BluRay.1080p.DTS-HD.MA.5.1.AVC.REMUX-FraMeSToR.mkv
  3. Format                                   : Matroska
  4. Format version                           : Version 4
  5. File size                                : 27.8 GiB
  6. Duration                                 : 2 h 2 min
  7. Overall bit rate mode                    : Variable
  8. Overall bit rate                         : 32.5 Mb/s
  9. Movie name                               : War of the Arrows (2011)
  10. Encoded date                             : UTC 2018-12-31 18:02:25
  11. Writing application                      : mkvmerge v29.0.0 ('Like It Or Not') 64-bit
  12. Writing library                          : libebml v1.3.6 + libmatroska v1.4.9
  13. Video
  14. ID                                       : 1
  15. Format                                   : AVC
  16. Format/Info                              : Advanced Video Codec
  17. Format profile                           : High@L4.1
  18. Format settings                          : CABAC / 4 Ref Frames
  19. Format settings, CABAC                   : Yes
  20. Format settings, Reference frames        : 4 frames
  21. Codec ID                                 : V_MPEG4/ISO/AVC
  22. Duration                                 : 2 h 2 min
  23. Bit rate mode                            : Variable
  24. Bit rate                                 : 29.9 Mb/s
  25. Maximum bit rate                         : 33.0 Mb/s
  26. Width                                    : 1 920 pixels
  27. Height                                   : 1 080 pixels
  28. Display aspect ratio                     : 16:9
  29. Frame rate mode                          : Constant
  30. Frame rate                               : 23.976 (24000/1001) FPS
  31. Color space                              : YUV
  32. Chroma subsampling                       : 4:2:0
  33. Bit depth                                : 8 bits
  34. Scan type                                : Progressive
  35. Bits/(Pixel*Frame)                       : 0.601
  36. Stream size                              : 25.5 GiB (92%)
  37. Default                                  : Yes
  38. Forced                                   : No
  39. Audio #1
  40. ID                                       : 2
  41. Format                                   : DTS XLL
  42. Format/Info                              : Digital Theater Systems
  43. Commercial name                          : DTS-HD Master Audio
  44. Codec ID                                 : A_DTS
  45. Duration                                 : 2 h 2 min
  46. Bit rate mode                            : Variable
  47. Bit rate                                 : 2 397 kb/s
  48. Channel(s)                               : 6 channels
  49. Channel layout                           : C L R Ls Rs LFE
  50. Sampling rate                            : 48.0 kHz
  51. Frame rate                               : 93.750 FPS (512 SPF)
  52. Bit depth                                : 16 bits
  53. Compression mode                         : Lossless
  54. Stream size                              : 2.05 GiB (7%)
  55. Title                                    : DTS-HD MA 5.1
  56. Language                                 : Korean
  57. Default                                  : Yes
  58. Forced                                   : No
  59. Audio #2
  60. ID                                       : 3
  61. Format                                   : AC-3
  62. Format/Info                              : Audio Coding 3
  63. Commercial name                          : Dolby Digital
  64. Codec ID                                 : A_AC3
  65. Duration                                 : 2 h 2 min
  66. Bit rate mode                            : Constant
  67. Bit rate                                 : 224 kb/s
  68. Channel(s)                               : 2 channels
  69. Channel layout                           : L R
  70. Sampling rate                            : 48.0 kHz
  71. Frame rate                               : 31.250 FPS (1536 SPF)
  72. Compression mode                         : Lossy
  73. Stream size                              : 196 MiB (1%)
  74. Title                                    : Commentary by Bey Logan (Cine Asia World Exclusive)
  75. Language                                 : English
  76. Service kind                             : Complete Main
  77. Default                                  : No
  78. Forced                                   : No
  79. Text
  80. ID                                       : 4
  81. Format                                   : PGS
  82. Codec ID                                 : S_HDMV/PGS
  83. Codec ID/Info                            : Picture based subtitle format used on BDs/HD-DVDs
  84. Duration                                 : 1 h 57 min
  85. Bit rate                                 : 15.2 kb/s
  86. Frame rate                               : 0.182 FPS
  87. Count of elements                        : 1286
  88. Stream size                              : 12.8 MiB (0%)
  89. Title                                    : English
  90. Language                                 : English
  91. Default                                  : Yes
  92. Forced                                   : No
  93. Menu
  94. 00:00:00.000                             : en:In Search of a Traitor
  95. 00:06:45.655                             : en:The Master of Gaeseong
  96. 00:10:38.096                             : en:Hunting Party
  97. 00:15:52.034                             : en:A Duel for Ja-in's Hand
  98. 00:21:16.317                             : en:Living the Past
  99. 00:27:17.719                             : en:The Day of the Wedding
  100. 00:31:33.225                             : en:Invaders from Manchuria
  101. 00:36:39.531                             : en:A Threat to the Prince
  102. 00:41:34.617                             : en:The I'll Fate of Gaeseong
  103. 00:48:52.304                             : en:In Pursuit of the Invaders
  104. 00:54:09.455                             : en:A Cruel Test
  105. 00:57:54.054                             : en:A Bid for Freedom
  106. 01:04:08.511                             : en:In Servitude to the Prince
  107. 01:09:41.094                             : en:Severing the Royal Line
  108. 01:18:42.718                             : en:Cutting off the Escape
  109. 01:26:08.580                             : en:Showing Mercy to the Enemy
  110. 01:30:26.588                             : en:Closing the Tiger Trap
  111. 01:40:22.266                             : en:The Sniper's Ambush
  112. 01:47:08.172                             : en:Overcoming the Wind
  113. 01:58:29.144                             : en:End Credits
复制代码









回复

使用道具 举报

懒得打字嘛,点击右侧快捷回复 【右侧内容,后台自定义】
您需要登录后才可以回帖 登录 | 立即加入

本版积分规则

Archiver| |网站地图

Copyright © 2024 Comsenz Inc. Powered by 蓝光电影网

本站内容由用户自主分享和转载自互联网,转载目的在于传递更多信息,并不代表本网赞同其观点和对其真实性负责。

如有侵权、违反国家法律政策行为,请联系我们,我们会第一时间及时清除和处理!

举报反馈邮箱:4k1080.com@gmail.com

快速回复 返回顶部 返回列表