找回密码

查看: 669|回复: 0

[2022][韩国][动作]最终兵器爱丽丝/최종병기 앨리스 [全8集][韩俄音轨].Ultimate.Weapon.Alice.2022.S01.1080p.WEB-DL.AVC.AAC-TAG 9.66GB

[复制链接]
蓝光币
1917
发表于 2024-3-22 00:37:31 | 显示全部楼层 |阅读模式
[2022][韩国][行动]终极兵器爱丽丝/최종병기 앨리스 [全8集][韩俄音轨].Ultimate.Weapon.Alice.2022.S01.1080p.WEB-DL.AVC.AAC-TAG 9.66GB-1.jpg

◎译  名 终极兵器爱丽丝 / Ultimate Weapon Alice
◎片  名 최종병기 앨리스
◎年  代 2022
◎产  地 韩国
◎类  别 行动 / 恋爱
◎语  言 韩语
◎上映日期 2022-06-24(韩国)
◎豆瓣评星 ★★★☆☆
◎豆瓣评分 6.2/10 from 1,203 users
◎豆瓣链接 https://movie.douban.com/subject/35732282/
◎集  数 8
◎导  演 李炳宪 / Byeong-Heon Lee
◎演  员 朴世婉 / Se-wan Park
      宋建熙 / Geon-hee Song
      金成伍 / Seong-oh Kim
      金太勋 / Tae-hoon Kim
      郑胜吉 / Seung-gil Jeong
      车珠英 / Joo-young Cha
      金燿汉 / Yo-han Kim
      李奎元 / Lee Gyu Won
      黄成彬 / SungBin Hwang
◎编  剧 李炳宪 / Byeong-Heon Lee
◎行动特技 白承烨 / Seung-yeop Baek
      朴东真 / Dongjin Park

◎简  介 

  该剧报告了奥秘转门生及杀手“冬季”与曾遭心灵创伤的高中生“炎天”相遇一路追踪犯罪构造,以为是粉色之光,成果是赤色之光的校园生活恋爱行动故事。
  1. General
  2. Complete name : 终极兵器爱丽丝Ultimate.Weapon.Alice.S01E03.1080p.WEB-DL.AVC.AAC-TAG.mp4
  3. Format : MPEG-4
  4. Format profile : Base Media
  5. Codec ID : isom (isom/iso2/avc1/mp41)
  6. File size : 1.49 GiB
  7. Duration : 36 min 43 s
  8. Overall bit rate mode : Variable
  9. Overall bit rate : 5 818 kb/s
  10. Writing application : Lavf58.29.100

  11. Video
  12. ID : 1
  13. Format : AVC
  14. Format/Info : Advanced Video Codec
  15. Format profile : High@L4
  16. Format settings : CABAC / 4 Ref Frames
  17. Format settings, CABAC : Yes
  18. Format settings, Reference frames : 4 frames
  19. Codec ID : avc1
  20. Codec ID/Info : Advanced Video Coding
  21. Duration : 36 min 43 s
  22. Bit rate mode : Variable
  23. Bit rate : 5 428 kb/s
  24. Maximum bit rate : 5 800 kb/s
  25. Width : 1 920 pixels
  26. Height : 1 080 pixels
  27. Display aspect ratio : 16:9
  28. Original display aspect ratio : 2.100
  29. Frame rate mode : Constant
  30. Frame rate : 24.000 FPS
  31. Color space : YUV
  32. Chroma subsampling : 4:2:0
  33. Bit depth : 8 bits
  34. Scan type : Progressive
  35. Bits/(Pixel*Frame) : 0.109
  36. Stream size : 1.39 GiB (93%)
  37. Codec configuration box : avcC

  38. Audio #1
  39. ID : 2
  40. Format : AAC LC
  41. Format/Info : Advanced Audio Codec Low Complexity
  42. Codec ID : mp4a-40-2
  43. Duration : 36 min 41 s
  44. Duration_LastFrame : -12 ms
  45. Bit rate mode : Constant
  46. Bit rate : 254 kb/s
  47. Channel(s) : 2 channels
  48. Channel layout : L R
  49. Sampling rate : 44.1 kHz
  50. Frame rate : 43.066 FPS (1024 SPF)
  51. Compression mode : Lossy
  52. Stream size : 66.6 MiB (4%)
  53. Language : Russian
  54. Default : Yes
  55. Alternate group : 1

  56. Audio #2
  57. ID : 3
  58. Format : AAC LC
  59. Format/Info : Advanced Audio Codec Low Complexity
  60. Codec ID : mp4a-40-2
  61. Duration : 36 min 43 s
  62. Bit rate mode : Constant
  63. Bit rate : 128 kb/s
  64. Channel(s) : 2 channels
  65. Channel layout : L R
  66. Sampling rate : 48.0 kHz
  67. Frame rate : 46.875 FPS (1024 SPF)
  68. Compression mode : Lossy
  69. Stream size : 33.6 MiB (2%)
  70. Language : Korean
  71. Default : Yes
  72. Alternate group : 2
复制代码
[2022][韩国][行动]终极兵器爱丽丝/최종병기 앨리스 [全8集][韩俄音轨].Ultimate.Weapon.Alice.2022.S01.1080p.WEB-DL.AVC.AAC-TAG 9.66GB-2.jpg








回复

使用道具 举报

懒得打字嘛,点击右侧快捷回复 【右侧内容,后台自定义】
您需要登录后才可以回帖 登录 | 立即加入

本版积分规则

Archiver| |网站地图

Copyright © 2024 Comsenz Inc. Powered by 蓝光电影网

本站内容由用户自主分享和转载自互联网,转载目的在于传递更多信息,并不代表本网赞同其观点和对其真实性负责。

如有侵权、违反国家法律政策行为,请联系我们,我们会第一时间及时清除和处理!

举报反馈邮箱:4k1080.com@gmail.com

快速回复 返回顶部 返回列表