找回密码

查看: 350|回复: 0

[悬疑] 惊悚无眠.Sleepless.2001.1080p.BluRay.REMUX.AVC.DTS-HD.HR.5.1-Asmo 32.84GB

[复制链接]
蓝光币
1925
发表于 2024-3-11 12:19:01 | 显示全部楼层 |阅读模式


◎译  名 惊悚无眠 / Sleepless
◎片  名 Non ho sonno
◎年  代 2001
◎产  地 意大利
◎类  别 悬疑 / 惊悚 / 可骇 / 犯罪
◎语  言 意大利语 / 英语
◎上映日期 2001-01-05
◎IMDb评星  ★★★★★★☆☆☆☆
◎IMDb评分  6.2/10 from 7,448 users
◎IMDb链接  https://www.imdb.com/title/tt0220827/
◎豆瓣评星 ★★★✦☆
◎豆瓣评分 7.1/10 from 940 users
◎豆瓣链接 https://movie.douban.com/subject/1758840/
◎片  长 117 分钟
◎导  演 达里奥·阿基多 / Dario Argento
◎演  员 马克斯·冯·叙多夫 / Max von Sydow
      斯特法诺·迪奥尼斯 / Stefano Dionisi
      切瑞拉·凯瑟莉 / Chiara Caselli
      保罗·玛丽亚·塞隆德罗 / Paolo Maria Scalondro
      芭芭拉·莱里奇 / Barbara Lerici | 饰 Angela
      Conchita Puglisi Conchita Puglisi
◎编  剧 达里奥·阿基多 / Dario Argento
      弗兰科·费里尼 / Franco Ferrini
      Carlo Lucarelli Carlo Lucarelli
◎制  片  人 达里奥·阿基多 / Dario Argento
◎音  乐 Goblin Goblin
◎剪  辑 安娜·罗莎·那不勒斯 / Anna Rosa Napoli
◎选  角 卢嘉勒·莫雷蒂 / Chiara Moretti
◎美  术 马西莫·安东内洛·格伦 / Massimo Antonello Geleng
◎化  妆 Massimo Gattabrusi Massimo Gattabrusi
◎简  介 
  一位妓女应召到一嫖客家里,当时他正昏睡在房内,不竭自言自语。正当她慌慌忙穿回衣服,预备分开这怪客之际,竟被她发现了一些骇人的工具,其中包括几把利刀。一些死人牙齿和毛发,多年前几宗谋杀案的剪报与及妙龄女死者尸身的照片。她在惊慌中将一个活页夹带走……
  1. Sleepless.2001.1080p.BluRay.REMUX.AVC.DTS-HD.HR.5.1-Asmo
  2. Stream #0:0(eng): Video: h264 (High), yuv420p(progressive), 1920x1080 [SAR 1:1 DAR 16:9], 23.98 fps, 23.98 tbr, 1k tbn, 47.95 tbc (default)
  3. Stream #0:1(eng): Audio: dts (DTS-HD HRA), 48000 Hz, 5.1(side), fltp (default)
  4. Stream #0:2(ita): Audio: dts (DTS-HD HRA), 48000 Hz, 5.1(side), fltp
  5. Stream #0:3(rus): Audio: dts (DTS-HD MA), 48000 Hz, 5.1(side), s16p
  6. Stream #0:4(eng): Subtitle: subrip
  7. Stream #0:5(spa): Subtitle: subrip
  8. Stream #0:6(fre): Subtitle: subrip
  9. Stream #0:7(pol): Subtitle: subrip
复制代码









回复

使用道具 举报

懒得打字嘛,点击右侧快捷回复 【右侧内容,后台自定义】
您需要登录后才可以回帖 登录 | 立即加入

本版积分规则

Archiver| |网站地图

Copyright © 2024 Comsenz Inc. Powered by 蓝光电影网

本站内容由用户自主分享和转载自互联网,转载目的在于传递更多信息,并不代表本网赞同其观点和对其真实性负责。

如有侵权、违反国家法律政策行为,请联系我们,我们会第一时间及时清除和处理!

举报反馈邮箱:4k1080.com@gmail.com

快速回复 返回顶部 返回列表