找回密码

查看: 756|回复: 8

[2160p-WEB] 可怜的东西.Poor.Things.2023.Eng.Fre.Ger.Ita.Spa.2160p.WEBMux.HDR.HDR10Plus.DV.HEVC.Atmos-SGF 27.00GB

[复制链接]
蓝光币
1917
发表于 2024-3-20 18:05:18 | 显示全部楼层 |阅读模式


◎译  名 不幸的工具
◎片  名 Poor Things
◎年  代 2023
◎产  地 爱尔兰 / 英国 / 美国 / 匈牙利
◎类  别 剧情 / 笑剧 / 恋爱 / 科幻
◎语  言 英语 / 法语 / 葡萄牙语
◎上映日期 2023-09-01(威尼斯电影节) / 2023-12-08(美国)
◎IMDb评星  ★★★★★★★★☆☆
◎IMDb评分  8.1/10 from 168,691 users
◎IMDb链接  https://www.imdb.com/title/tt14230458/
◎豆瓣评星 ★★★✦☆
◎豆瓣评分 7.1/10 from 87,617 users
◎豆瓣链接 https://movie.douban.com/subject/35350109/
◎片  长 141分钟
◎导  演 欧格斯·兰斯莫斯 / Yorgos Lanthimos
◎演  员 艾玛·斯通 / Emma Stone | 饰 Belle Baxter
      马克·鲁弗洛 / Mark Ruffalo | 饰 Duncan Wedderburn
      威廉·达福 / Willem Dafoe | 饰 Dr. Godwin Baxter
      拉米·尤素夫 / Ramy Youssef | 饰 Max McCandless
      克里斯托弗·阿波特 / Christopher Abbott | 饰 Alfie Blessington
      苏西·本巴 / Suzy Bemba | 饰 Toinette
      杰洛德·卡尔迈克 / Jerrod Carmichael | 饰 Harry Astley
      凯瑟琳·亨特 / Kathryn Hunter | 饰 Swiney
      薇琪·佩珀代因 / Vicki Pepperdine | 饰 Mrs. Prim
      玛格丽特·库里 / Margaret Qualley | 饰 Felicity
      汉娜·许古拉 / Hanna Schygulla | 饰 Martha Von Kurtzroc
      杰克·巴顿 / Jack Barton | 饰 Fop #1
      查理·希斯科克 / Charlie Hiscock | 饰 Fop #2
      阿提拉·多拜 / Attila Dobai | 饰 Hapless Student
      艾玛·欣德尔 / Emma Hindle | 饰 Woman with Kid in London Street
      安德斯·奥洛夫·格伦德伯格 / Anders Olof Grundberg | 饰 Kid in London Street
      艾提拉·凯科斯克麦西 / Attila Kecskeméthy | 饰 Burly Guy
      朱西马尔·巴尔博萨 / Jucimar Barbosa | 饰 Lisbon Doorman
      卡米尼奥 / Carminho | 饰 Fado Singing Woman
      安杰拉·保拉·史丹德尔 / Angela Paula Stander | 饰 Arguing Woman
      古斯塔沃·戈麦斯 / Gustavo Gomes | 饰 Arguing Man
      凯特·汉福德 / Kate Handford | 饰 Kitty
      欧文·古德 / Owen Good | 饰 Gerald
      兹恩·约书亚·泊松 / Zen Joshua Poisson | 饰 Lisbon Crying Baby
      薇薇安·索恩 / Vivienne Soan  | 饰 Duchess
      杰尔斯金·芬德里克斯 / Jerskin Fendrix
      韦恩·布雷特 / Wayne Brett | 饰 Priest
      凯奇凯梅西·阿提拉 / Kecskeméthy Attila | 饰 Burly Guy
      达米安·勃纳尔 / Damien Bonnard | 饰 Father
      杰瑞米·惠勒 / Jeremy Wheeler | 饰 Ship Officer
      罗德里克·希尔 / Roderick Hill | 饰 Man in Park
      安德鲁·赫夫勒 / Andrew Hefler | 饰 Boring Guy
      欧格斯·斯特凡纳科斯 / Yorgos Stefanakos | 饰 Georges
      加博·帕泰 / Gábor Patay | 饰 Hooks for Hands Guy
       洛朗·博雷尔 Laurent Borel | 饰 Crab Man
      多丽娜·科瓦奇 / Dorina Kovacs | 饰 Swiney's Grandchild
      鲍里斯·吉洛 / Boris Gillot | 饰 Mersault
      迈尔斯·约维安 / Miles Jovian | 饰 Gangplank Steward 2
      帕特里克·代·瓦莱特 / Patrick de Valette | 饰 Chapelle
      亚诺什·格莱布 / János Geréb | 饰 Dog Owner
      马苏德·达希尔 / Mascuud Dahir | 饰 Gangplank Steward 1
      塔马斯·萨博·西珀斯 / Tamás Szabó Sipos | 饰 Lisbon Dancing Man
      多诺万·福西尔 / Donovan Fouassier | 饰 Son 2
      诺亚·布雷顿 / Noah Breton | 饰 Son 1
      亚历山德拉·托特 / Alexandra Tóth | 饰 Upper Class Woman
      萨姆·J·夏沃 / Sam J. Schiavo | 饰 Fighting Fisherman 2
      瑟林纳·施莱谢尔 / Celina Schleicher | 饰 Swiney Woman #1
      希沙姆·奥马尔 / Hisham Omer | 饰 Alexandria Hotel Waiter
      格戈·博尔巴斯 / Gergo Borbas | 饰 Tittering student #2
      戴维·布罗姆利 / David Bromley | 饰 Alfie's Doctor
      约翰·洛克 / John Locke | 饰 David, Alfie's Burlter
      布鲁纳·阿斯多里安 / Bruna Asdorian | 饰 Lisbon Dancing Woman
◎编  剧 托尼·麦克纳马拉 / Tony McNamara
      阿拉斯代尔·格雷 / Alasdair Gray
◎制  片  人 欧格斯·兰斯莫斯 / Yorgos Lanthimos
      艾玛·斯通 / Emma Stone
      安德鲁·洛 / Andrew Lowe
      艾德·格尼 / Ed Guiney
◎音  乐 杰尔斯金·芬德里克斯 / Jerskin Fendrix
◎摄  影 罗比·瑞恩 / Robbie Ryan
◎美  术 肖娜·希斯 / Shona Heath
      詹姆斯·普莱斯 / James Price
      朱扎·米哈莱克 / Zsuzsa Mihalek
◎服  装 霍莉·沃丁顿 / Holly Waddington
◎音  效 强尼·伯恩 / Johnnie Burn
◎其  它 瓦西里斯·马尔马塔基斯 / Vasilis Marmatakis
◎简  介 
  影片基于苏格兰作家阿拉斯代尔·格雷所著同名小说,融合现实主义、奇异、科幻元素,将弗兰肯斯坦的故事重塑,设定在维多利亚时代晚期,回避丈夫凌虐却不幸身亡的女子贝拉(艾玛·斯通 Emma Stone 饰),在被科学家成功新生后,心智逗留在孩童阶段,却也对未知天下布满渴望;她与汗漫律师私奔踏上挖掘自我的冒险,试图摆脱时代对女性偏见,追求同等与性束缚。
◎获奖情况 
  第96届奥斯卡金像奖 (2024)
  最好影片(提名) 艾德·格尼,安德鲁·洛,艾玛·斯通,欧格斯·兰斯莫斯
  最好导演(提名) 欧格斯·兰斯莫斯
  最好女配角 艾玛·斯通
  最好男配角(提名) 马克·鲁弗洛
  最好改编剧本(提名) 托尼·麦克纳马拉
  最好摄影(提名) 罗比·瑞恩
  最好剪辑(提名) 欧格斯·马夫罗萨里迪斯
  最好艺术指导 肖娜·希斯,詹姆斯·普莱斯,朱扎·米哈莱克
  最好打扮设想 霍莉·沃丁顿
  最好化装与发型设想 乔希·韦斯顿,马克·凯奥耶,纳迪娅·斯欧美
  最好原创配乐(提名) 杰尔斯金·芬德里克斯
  第80届威尼斯电影节 (2023)
  主比赛单元 金狮奖 欧格斯·兰斯莫斯
  第81届金球奖 (2024)
  电影类 最好音乐/笑剧片
  电影类 最好导演(提名) 欧格斯·兰斯莫斯
  电影类 音乐/笑剧片最好女配角 艾玛·斯通
  电影类 最好男配角(提名) 马克·鲁弗洛,威廉·达福
  电影类 最好编剧(提名) 托尼·麦克纳马拉
  电影类 最好原创配乐(提名) 杰尔斯金·芬德里克斯
  第77届英国电影学院奖 (2024)
  电影奖 最好影片(提名) 艾德·格尼,安德鲁·洛,艾玛·斯通,欧格斯·兰斯莫斯
  电影奖 最好英国影片(提名) 托尼·麦克纳马拉,艾德·格尼,安德鲁·洛,艾玛·斯通,欧格斯·兰斯莫斯
  电影奖 最好女配角 艾玛·斯通
  电影奖 最好改编剧本(提名) 托尼·麦克纳马拉
  电影奖 最好摄影(提名) 罗比·瑞恩
  电影奖 最好剪辑(提名) 欧格斯·马夫罗萨里迪斯
  电影奖 最好化装/发型 马克·凯奥耶,纳迪娅·斯欧美
  电影奖 最好打扮设想 霍莉·沃丁顿
  电影奖 最好艺术指导 肖娜·希斯,詹姆斯·普莱斯,朱扎·米哈莱克
  电影奖 最好特别视觉结果
  电影奖 最好原创配乐(提名) 杰尔斯金·芬德里克斯
  第76届美国导演工会奖 (2024)
  最好电影导演(提名) 欧格斯·兰斯莫斯
  第30届美国演员工会奖 (2024)
  电影奖 最好女配角(提名) 艾玛·斯通
  电影奖 最好男配角(提名) 威廉·达福
  第35届美国制片野生会奖 (2024)
  最好电影制片人奖(提名)
  第95届美国国家批评协会奖 (2023)
  最好男配角 马克·鲁弗洛
  最好改编剧本 托尼·麦克纳马拉
  第29届美国批评家挑选电影奖 (2024)
  最好影片(提名)
  最好导演(提名) 欧格斯·兰斯莫斯
  最好女配角 艾玛·斯通
  最好男配角(提名) 马克·鲁弗洛
  最好笑剧片(提名)
  最好改编剧本(提名) 托尼·麦克纳马拉
  最好摄影(提名) 罗比·瑞恩
  最好剪辑(提名) 欧格斯·马夫罗萨里迪斯
  最好配乐(提名) 杰尔斯金·芬德里克斯
  最好美术指导(提名) 肖娜·希斯,詹姆斯·普莱斯,朱扎·米哈莱克
  最好打扮设想(提名) 霍莉·沃丁顿
  最好发型化装(提名)
  最好视觉结果(提名)
  第33届哥谭自力电影奖 (2023)
  最好国际影片(提名) 艾德·格尼,安德鲁·洛,艾玛·斯通,欧格斯·兰斯莫斯
  第57届美国国家影评人协会奖 (2023)
  最好女配角(提名) 艾玛·斯通
  1. General
  2. Unique ID: 149348000569854068064298283317476838954 (0x705B60EEC27DD074420B8A908621CE2A)
  3. Complete name: Poor.Things.2023.Eng.Fre.Ger.Ita.Spa.2160p.WEBMux.HDR.HDR10Plus.DV.HEVC.Atmos-SGF.mkv
  4. Format: Matroska
  5. Format version: Version 4
  6. File size: 27.0 GiB
  7. Duration: 2 h 21 min
  8. Overall bit rate: 27.3 Mb/s
  9. Frame rate: 24.000 FPS
  10. Encoded date: 2024-03-07 16:41:10 UTC
  11. Writing application: mkvmerge v82.0 ('I'm The President') 64-bit
  12. Writing library: libebml v1.4.5 + libmatroska v1.7.1
  13. Video
  14. ID: 1
  15. Format: HEVC
  16. Format/Info: High Efficiency Video Coding
  17. Format profile: Main 10@L5@High
  18. HDR format: Dolby Vision, Version 1.0, Profile 8.1, dvhe.08.06, BL+RPU, HDR10 compatible / SMPTE ST 2094 App 4, Version HDR10+ Profile A, HDR10+ Profile A compatible
  19. Codec ID: V_MPEGH/ISO/HEVC
  20. Duration: 2 h 21 min
  21. Bit rate: 24.6 Mb/s
  22. Width: 3 582 pixels
  23. Height: 2 160 pixels
  24. Display aspect ratio: 5:3
  25. Frame rate mode: Constant
  26. Frame rate: 24.000 FPS
  27. Color space: YUV
  28. Chroma subsampling: 4:2:0 (Type 2)
  29. Bit depth: 10 bits
  30. Bits/(Pixel*Frame): 0.132
  31. Stream size: 24.3 GiB (90%)
  32. Default: Yes
  33. Forced: No
  34. Color range: Limited
  35. Color primaries: BT.2020
  36. Transfer characteristics: PQ
  37. Matrix coefficients: BT.2020 non-constant
  38. Mastering display color primaries: BT.2020
  39. Mastering display luminance: min: 0.0050 cd/m2, max: 1000 cd/m2
  40. Maximum Content Light Level: 1433 cd/m2
  41. Maximum Frame-Average Light Level: 92 cd/m2
  42. Audio 1
  43. ID: 2
  44. Format: E-AC-3 JOC
  45. Format/Info: Enhanced AC-3 with Joint Object Coding
  46. Commercial name: Dolby Digital Plus with Dolby Atmos
  47. Codec ID: A_EAC3
  48. Duration: 2 h 21 min
  49. Bit rate mode: Constant
  50. Bit rate: 768 kb/s
  51. Channel(s): 6 channels
  52. Channel layout: L R C LFE Ls Rs
  53. Sampling rate: 48.0 kHz
  54. Frame rate: 31.250 FPS (1536 SPF)
  55. Compression mode: Lossy
  56. Stream size: 778 MiB (3%)
  57. Title: English [Dolby Digital Plus Atmos 5.1]
  58. Language: English
  59. Service kind: Complete Main
  60. Default: Yes
  61. Forced: No
  62. Complexity index: 16
  63. Number of dynamic objects: 15
  64. Bed channel count: 1 channel
  65. Bed channel configuration: LFE
  66. Audio 2
  67. ID: 3
  68. Format: AC-3
  69. Format/Info: Audio Coding 3
  70. Commercial name: Dolby Digital
  71. Codec ID: A_AC3
  72. Duration: 2 h 21 min
  73. Bit rate mode: Constant
  74. Bit rate: 640 kb/s
  75. Channel(s): 6 channels
  76. Channel layout: L R C LFE Ls Rs
  77. Sampling rate: 48.0 kHz
  78. Frame rate: 31.250 FPS (1536 SPF)
  79. Compression mode: Lossy
  80. Stream size: 648 MiB (2%)
  81. Title: English [Dolby Digital 5.1]
  82. Language: English
  83. Service kind: Complete Main
  84. Default: No
  85. Forced: No
  86. Audio 3
  87. ID: 4
  88. Format: AC-3
  89. Format/Info: Audio Coding 3
  90. Commercial name: Dolby Digital
  91. Codec ID: A_AC3
  92. Duration: 2 h 21 min
  93. Bit rate mode: Constant
  94. Bit rate: 384 kb/s
  95. Channel(s): 6 channels
  96. Channel layout: L R C LFE Ls Rs
  97. Sampling rate: 48.0 kHz
  98. Frame rate: 31.250 FPS (1536 SPF)
  99. Compression mode: Lossy
  100. Stream size: 389 MiB (1%)
  101. Title: French (France) [Dolby Digital 5.1]
  102. Language: French (FR)
  103. Service kind: Complete Main
  104. Default: No
  105. Forced: No
  106. Audio 4
  107. ID: 5
  108. Format: E-AC-3
  109. Format/Info: Enhanced AC-3
  110. Commercial name: Dolby Digital Plus
  111. Codec ID: A_EAC3
  112. Duration: 2 h 21 min
  113. Bit rate mode: Constant
  114. Bit rate: 256 kb/s
  115. Channel(s): 6 channels
  116. Channel layout: L R C LFE Ls Rs
  117. Sampling rate: 48.0 kHz
  118. Frame rate: 31.250 FPS (1536 SPF)
  119. Compression mode: Lossy
  120. Stream size: 259 MiB (1%)
  121. Title: German [Dolby Digital Plus 5.1]
  122. Language: German
  123. Service kind: Complete Main
  124. Default: No
  125. Forced: No
  126. Audio 5
  127. ID: 6
  128. Format: E-AC-3
  129. Format/Info: Enhanced AC-3
  130. Commercial name: Dolby Digital Plus
  131. Codec ID: A_EAC3
  132. Duration: 2 h 21 min
  133. Bit rate mode: Constant
  134. Bit rate: 256 kb/s
  135. Channel(s): 6 channels
  136. Channel layout: L R C LFE Ls Rs
  137. Sampling rate: 48.0 kHz
  138. Frame rate: 31.250 FPS (1536 SPF)
  139. Compression mode: Lossy
  140. Stream size: 259 MiB (1%)
  141. Title: Italian [Dolby Digital Plus 5.1]
  142. Language: Italian
  143. Service kind: Complete Main
  144. Default: No
  145. Forced: No
  146. Audio 6
  147. ID: 7
  148. Format: AC-3
  149. Format/Info: Audio Coding 3
  150. Commercial name: Dolby Digital
  151. Codec ID: A_AC3
  152. Duration: 2 h 21 min
  153. Bit rate mode: Constant
  154. Bit rate: 384 kb/s
  155. Channel(s): 6 channels
  156. Channel layout: L R C LFE Ls Rs
  157. Sampling rate: 48.0 kHz
  158. Frame rate: 31.250 FPS (1536 SPF)
  159. Compression mode: Lossy
  160. Stream size: 389 MiB (1%)
  161. Title: Spanish (Latin America) [Dolby Digital 5.1]
  162. Language: Spanish (Latin America)
  163. Service kind: Complete Main
  164. Default: No
  165. Forced: No
  166. Text 1
  167. ID: 8
  168. Format: UTF-8
  169. Codec ID: S_TEXT/UTF8
  170. Codec ID/Info: UTF-8 Plain Text
  171. Duration: 2 h 10 min
  172. Bit rate: 47 b/s
  173. Frame rate: 0.208 FPS
  174. Count of elements: 1627
  175. Stream size: 45.0 KiB (0%)
  176. Title: English [Full]
  177. Language: English
  178. Default: No
  179. Forced: No
  180. Text 2
  181. ID: 9
  182. Format: UTF-8
  183. Codec ID: S_TEXT/UTF8
  184. Codec ID/Info: UTF-8 Plain Text
  185. Duration: 2 h 20 min
  186. Bit rate: 53 b/s
  187. Frame rate: 0.258 FPS
  188. Count of elements: 2175
  189. Stream size: 55.4 KiB (0%)
  190. Title: English [SDH]
  191. Language: English
  192. Default: No
  193. Forced: No
  194. Text 3
  195. ID: 10
  196. Format: UTF-8
  197. Codec ID: S_TEXT/UTF8
  198. Codec ID/Info: UTF-8 Plain Text
  199. Duration: 2 h 21 min
  200. Bit rate: 43 b/s
  201. Frame rate: 0.165 FPS
  202. Count of elements: 1400
  203. Stream size: 45.5 KiB (0%)
  204. Title: French (France) [Full]
  205. Language: French (FR)
  206. Default: No
  207. Forced: No
  208. Text 4
  209. ID: 11
  210. Format: UTF-8
  211. Codec ID: S_TEXT/UTF8
  212. Codec ID/Info: UTF-8 Plain Text
  213. Duration: 2 h 10 min
  214. Bit rate: 44 b/s
  215. Frame rate: 0.205 FPS
  216. Count of elements: 1605
  217. Stream size: 42.9 KiB (0%)
  218. Title: German [Full]
  219. Language: German
  220. Default: No
  221. Forced: No
  222. Text 5
  223. ID: 12
  224. Format: UTF-8
  225. Codec ID: S_TEXT/UTF8
  226. Codec ID/Info: UTF-8 Plain Text
  227. Duration: 2 h 19 min
  228. Bit rate: 43 b/s
  229. Frame rate: 0.196 FPS
  230. Count of elements: 1638
  231. Stream size: 44.2 KiB (0%)
  232. Title: Italian [Full]
  233. Language: Italian
  234. Default: No
  235. Forced: No
  236. Text 6
  237. ID: 13
  238. Format: UTF-8
  239. Codec ID: S_TEXT/UTF8
  240. Codec ID/Info: UTF-8 Plain Text
  241. Duration: 2 h 21 min
  242. Bit rate: 44 b/s
  243. Frame rate: 0.193 FPS
  244. Count of elements: 1643
  245. Stream size: 46.0 KiB (0%)
  246. Title: Spanish (Latin America) [Full]
  247. Language: Spanish (Latin America)
  248. Default: No
  249. Forced: No
  250. Menu
  251. 00:00:00.000: en:Chapter 01
  252. 00:04:51.666: en:Chapter 02
  253. 00:08:12.125: en:Chapter 03
  254. 00:11:12.500: en:Chapter 04
  255. 00:15:42.375: en:Chapter 05
  256. 00:20:07.875: en:Chapter 06
  257. 00:25:42.250: en:Chapter 07
  258. 00:31:38.000: en:Chapter 08
  259. 00:36:54.000: en:Chapter 09
  260. 00:41:05.958: en:Chapter 10
  261. 00:48:28.166: en:Chapter 11
  262. 00:51:27.708: en:Chapter 12
  263. 00:59:05.458: en:Chapter 13
  264. 01:04:49.500: en:Chapter 14
  265. 01:09:36.333: en:Chapter 15
  266. 01:15:48.666: en:Chapter 16
  267. 01:22:32.208: en:Chapter 17
  268. 01:24:11.250: en:Chapter 18
  269. 01:30:57.833: en:Chapter 19
  270. 01:37:16.625: en:Chapter 20
  271. 01:43:33.125: en:Chapter 21
  272. 01:45:18.833: en:Chapter 22
  273. 01:48:23.041: en:Chapter 23
  274. 01:51:10.750: en:Chapter 24
  275. 01:58:14.208: en:Chapter 25
  276. 02:11:36.666: en:Chapter 26
  277. 02:15:57.000: en:Chapter 27
复制代码










回复

使用道具 举报

蓝光币
118
发表于 2024-3-20 22:16:36 | 显示全部楼层

感谢楼主的无私分享!
回复

使用道具 举报

蓝光币
323
发表于 2024-3-21 00:02:57 | 显示全部楼层
楼主发贴辛苦了,谢谢楼主分享!我觉得蓝光电影网是注册对了!
回复

使用道具 举报

蓝光币
324
发表于 2024-3-21 08:05:23 | 显示全部楼层
楼主发贴辛苦了,谢谢楼主分享!我觉得蓝光电影网是注册对了!
回复

使用道具 举报

蓝光币
2451
发表于 2024-3-21 08:16:17 | 显示全部楼层
太好啦&萬分感謝版主的無私發佈分享%
回复

使用道具 举报

蓝光币
164
发表于 2024-3-21 09:02:48 | 显示全部楼层

既然你诚信诚意的推荐了,那我就勉为其难的看看吧!蓝光电影网不走平凡路。
回复

使用道具 举报

蓝光币
178
发表于 2024-3-21 09:14:48 | 显示全部楼层

这个帖子不回对不起自己!我想我是一天也不能离开蓝光电影网。
回复

使用道具 举报

蓝光币
282
发表于 2024-3-23 20:32:52 | 显示全部楼层
感谢分享~~~~~~~
回复

使用道具 举报

蓝光币
789
发表于 2024-3-24 14:58:44 | 显示全部楼层

这个帖子不回对不起自己!我想我是一天也不能离开蓝光电影网。
回复

使用道具 举报

懒得打字嘛,点击右侧快捷回复 【右侧内容,后台自定义】
您需要登录后才可以回帖 登录 | 立即加入

本版积分规则

Archiver| |网站地图

Copyright © 2024 Comsenz Inc. Powered by 蓝光电影网

本站内容由用户自主分享和转载自互联网,转载目的在于传递更多信息,并不代表本网赞同其观点和对其真实性负责。

如有侵权、违反国家法律政策行为,请联系我们,我们会第一时间及时清除和处理!

举报反馈邮箱:4k1080.com@gmail.com

快速回复 返回顶部 返回列表