找回密码

查看: 399|回复: 0

[剧情] 游戏的法则,人间狩猎.Rule.of.the.Game.Human.Hunting.2020.1080p.FHDRip.H264.AAC-TAG 4.22GB

[复制链接]
蓝光币
1917
发表于 2024-3-21 17:25:38 | 显示全部楼层 |阅读模式
游戏的法例,人世狩猎.Rule.of.the.Game.Human.Hunting.2020.1080p.FHDRip.H264.AAC-TAG 4.22GB-1.jpg

◎译  名 游戏的法例,人世狩猎 / Rule of the Game: Human Hunting
◎片  名 게임의 법칙: 인간사냥
◎年  代 2021
◎产  地 韩国
◎类  别 剧情 / 行动
◎语  言 韩语
◎上映日期 2021-01-27(韩国)
◎豆瓣评星 ★★☆☆☆
◎豆瓣评分 3.6/10 from 257 users
◎豆瓣链接 https://movie.douban.com/subject/35574520/
◎片  长 84分钟
◎演  员 徐英 / Young Seo
      赵庆勋 / Kyung-hun Cho

◎简  介 

  비밀스러운 과거를 간직한 ‘정환’,
  과거를 정리하기 위해 찾아간 외딴섬에서 또 다른 여행객들과 마주하게 된다.

  모두 함께 머물게 된 게스트하우스에서
  ‘정환’ 홀로 묘한 분위기를 느끼고 주인 남자를 경계하지만
  어느새 그들의 표적이 된 자신을 발견하게 된다.

  위험한 상황에서 가까스로 탈출하는 데 성공한 순간
  또 다른 의문의 존재와 맞서 필사의 사투를 벌이게 되는데…

  섬의 위험한 비밀을 파헤치는 순간,
  광기의 추격이 시작된다!
  1. General
  2. Complete name                            : Rule of the Game Human Hunting 2020.1080p.FHDRip.H264.AAC-NonDRM.mp4
  3. Format                                   : MPEG-4
  4. Format profile                           : JVT
  5. Codec ID                                 : avc1 (isom/avc1)
  6. File size                                : 4.22 GiB
  7. Duration                                 : 1 h 24 min
  8. Overall bit rate                         : 7 135 kb/s
  9. Encoded date                             : UTC 2021-01-09 03:49:45
  10. Tagged date                              : UTC 2021-01-09 03:49:45

  11. Video
  12. ID                                       : 3
  13. Format                                   : AVC
  14. Format/Info                              : Advanced Video Codec
  15. Format profile                           : [email]High@L4.1[/email]
  16. Format settings                          : CABAC / 2 Ref Frames
  17. Format settings, CABAC                   : Yes
  18. Format settings, Reference frames        : 2 frames
  19. Format settings, GOP                     : M=3, N=15
  20. Codec ID                                 : avc1
  21. Codec ID/Info                            : Advanced Video Coding
  22. Duration                                 : 1 h 24 min
  23. Bit rate mode                            : Constant
  24. Bit rate                                 : 7 000 kb/s
  25. Maximum bit rate                         : 9 078 kb/s
  26. Width                                    : 1 920 pixels
  27. Height                                   : 1 080 pixels
  28. Display aspect ratio                     : 16:9
  29. Frame rate mode                          : Constant
  30. Frame rate                               : 23.976 (24000/1001) FPS
  31. Color space                              : YUV
  32. Chroma subsampling                       : 4:2:0
  33. Bit depth                                : 8 bits
  34. Scan type                                : Progressive
  35. Bits/(Pixel*Frame)                       : 0.141
  36. Stream size                              : 4.14 GiB (98%)
  37. Encoded date                             : UTC 2021-01-09 03:49:45
  38. Tagged date                              : UTC 2021-01-09 03:49:45
  39. Codec configuration box                  : avcC

  40. Audio
  41. ID                                       : 4
  42. Format                                   : AAC LC
  43. Format/Info                              : Advanced Audio Codec Low Complexity
  44. Codec ID                                 : mp4a-40-2
  45. Duration                                 : 1 h 24 min
  46. Duration_FirstFrame                      : 42 ms
  47. Bit rate mode                            : Constant
  48. Bit rate                                 : 128 kb/s
  49. Channel(s)                               : 2 channels
  50. Channel layout                           : L R
  51. Sampling rate                            : 48.0 kHz
  52. Frame rate                               : 46.875 FPS (1024 SPF)
  53. Compression mode                         : Lossy
  54. Stream size                              : 77.5 MiB (2%)
  55. Default                                  : Yes
  56. Alternate group                          : 1
  57. Encoded date                             : UTC 2021-01-09 03:49:45
  58. Tagged date                              : UTC 2021-01-09 03:49:45

  59. Other #1
  60. ID                                       : 1
  61. Type                                     : Object description
  62. Format                                   : System
  63. Codec ID                                 : mp4s-01
  64. Duration                                 : 1 ms
  65. Encoded date                             : UTC 2021-01-09 03:49:45
  66. Tagged date                              : UTC 2021-01-09 03:49:45

  67. Other #2
  68. ID                                       : 2
  69. Type                                     : Scene description
  70. Format                                   : System
  71. Codec ID                                 : mp4s-01
  72. Duration                                 : 1 ms
  73. Encoded date                             : UTC 2021-01-09 03:49:45
  74. Tagged date                              : UTC 2021-01-09 03:49:45
复制代码
游戏的法例,人世狩猎.Rule.of.the.Game.Human.Hunting.2020.1080p.FHDRip.H264.AAC-TAG 4.22GB-2.jpg 游戏的法例,人世狩猎.Rule.of.the.Game.Human.Hunting.2020.1080p.FHDRip.H264.AAC-TAG 4.22GB-3.jpg 游戏的法例,人世狩猎.Rule.of.the.Game.Human.Hunting.2020.1080p.FHDRip.H264.AAC-TAG 4.22GB-4.jpg 游戏的法例,人世狩猎.Rule.of.the.Game.Human.Hunting.2020.1080p.FHDRip.H264.AAC-TAG 4.22GB-5.jpg 游戏的法例,人世狩猎.Rule.of.the.Game.Human.Hunting.2020.1080p.FHDRip.H264.AAC-TAG 4.22GB-6.jpg 游戏的法例,人世狩猎.Rule.of.the.Game.Human.Hunting.2020.1080p.FHDRip.H264.AAC-TAG 4.22GB-7.jpg 游戏的法例,人世狩猎.Rule.of.the.Game.Human.Hunting.2020.1080p.FHDRip.H264.AAC-TAG 4.22GB-8.jpg 游戏的法例,人世狩猎.Rule.of.the.Game.Human.Hunting.2020.1080p.FHDRip.H264.AAC-TAG 4.22GB-9.jpg








回复

使用道具 举报

懒得打字嘛,点击右侧快捷回复 【右侧内容,后台自定义】
您需要登录后才可以回帖 登录 | 立即加入

本版积分规则

Archiver| |网站地图

Copyright © 2024 Comsenz Inc. Powered by 蓝光电影网

本站内容由用户自主分享和转载自互联网,转载目的在于传递更多信息,并不代表本网赞同其观点和对其真实性负责。

如有侵权、违反国家法律政策行为,请联系我们,我们会第一时间及时清除和处理!

举报反馈邮箱:4k1080.com@gmail.com

快速回复 返回顶部 返回列表