找回密码

查看: 1792|回复: 13

[2160p-WEB] 血战湘江 [国语/内嵌简中][4KHQ高码/60FPS].Battle.of.Xiangjiang.River.2017.60FPS.2160p.WEB-DL.H265.10bit.AAC-TAG 19.48GB

[复制链接]
蓝光币
2048
发表于 2024-3-23 18:28:26 | 显示全部楼层 |阅读模式
血战湘江 [国语/内嵌简中][4KHQ高码/60FPS].Battle.of.Xiangjiang.River.2017.60FPS.2160p.WEB-DL.H265.10bit.AAC-TAG 19.48GB-1.jpg
◎译  名 Battle of Xiangjiang River / 第四道封锁线
◎片  名 血战湘江
◎年  代 2017
◎产  地 中国大陆
◎类  别 历史 / 战争
◎语  言 汉语普通话
◎上映日期 2017-06-21(上海电影节) / 2017-06-30(中国大陆)
◎豆瓣链接 https://movie.douban.com/subject/26916202/
◎片  长 118分钟
◎导  演 陈力 / Li Chen
◎演  员 王霙 / Ying Wang | 饰 毛泽东
      徐箭 / Jian Xu | 饰 周恩来
      董勇 / Yong Dong | 饰 彭德怀
      孙维民 / Weimin Sun | 饰 林成衣
      保剑锋 / Jianfeng Bao | 饰 陈树湘
      耿乐 / Le Geng | 饰 耿飚
      张一山 / Yishan Zhang | 饰 李天助
      王大治 / Dazhi Wang | 饰 虎娃
      侯天来 / Tianlai Hou | 饰 何健
      刘之冰 / Zhibing Liu | 饰 白崇禧
      马晓伟 / Xiaowei Ma | 饰 蒋介石
      陈创 / Chuang Chen | 饰 林彪
      袁满 / Man Yuan | 饰 杨成武
      江南 | 饰 李德
      王韦智 / Weizhi Wang | 饰 朱德
      陶灏景 / Vincent Tao | 饰 博古
      叶思伟 / Siwei Ye
◎编  剧 柳建伟 / Jianwei Liu
      项小米 / Xiaomi Xiang
      白铁军 / Tiejun Bai
◎摄  影 王岩 / Yan Wang
◎服  装 刘晓莉 / Xiaoli Liu

◎获奖情况 

  第20届上海国际电影节 (2017)
  电影频道传媒大奖 组委会出格奖
  电影频道传媒大奖(提名)

  第31届中国电影金鸡奖 (2017)
  最好故事片(提名)
  最好男配角(提名) 孙维民
  评委会出格奖 出格影片奖

  第25届北京大门生电影节 (2018)
  组委会大奖

  1. General
  2. Complete name : T:\web\血战湘江.Battle.of.Xiangjiang.River.2017.60FPS.2160p.WEB-DL.H265.10bit.AAC-OurTV\血战湘江.Battle.of.Xiangjiang.River.2017.60FPS.2160p.WEB-DL.H265.10bit.AAC-TAG.mp4
  3. Format : MPEG-4
  4. Format profile : Base Media
  5. Codec ID : isom (isom/iso2/mp41)
  6. File size : 19.5 GiB
  7. Duration : 1 h 50 min
  8. Overall bit rate : 25.2 Mb/s
  9. Writing application : OurTV Multimedia Platform

  10. Video
  11. ID : 1
  12. Format : HEVC
  13. Format/Info : High Efficiency Video Coding
  14. Format profile : Main [email]10@L5.1[/email]@Main
  15. Codec ID : hev1
  16. Codec ID/Info : High Efficiency Video Coding
  17. Duration : 1 h 50 min
  18. Bit rate : 25.0 Mb/s
  19. Width : 3 840 pixels
  20. Height : 2 160 pixels
  21. Display aspect ratio : 16:9
  22. Frame rate mode : Variable
  23. Frame rate : 60.000 FPS
  24. Minimum frame rate : 59.960 FPS
  25. Maximum frame rate : 60.040 FPS
  26. Color space : YUV
  27. Chroma subsampling : 4:2:0
  28. Bit depth : 10 bits
  29. Bits/(Pixel*Frame) : 0.050
  30. Stream size : 19.3 GiB (99%)
  31. Color range : Limited
  32. Color primaries : BT.709
  33. Transfer characteristics : BT.709
  34. Matrix coefficients : BT.709
  35. Codec configuration box : hvcC

  36. Audio
  37. ID : 2
  38. Format : AAC LC
  39. Format/Info : Advanced Audio Codec Low Complexity
  40. Codec ID : mp4a-40-2
  41. Duration : 1 h 50 min
  42. Bit rate mode : Constant
  43. Bit rate : 192 kb/s
  44. Channel(s) : 2 channels
  45. Channel layout : L R
  46. Sampling rate : 44.1 kHz
  47. Frame rate : 43.066 FPS (1024 SPF)
  48. Compression mode : Lossy
  49. Stream size : 152 MiB (1%)
  50. Default : Yes
  51. Alternate group : 1
复制代码
血战湘江 [国语/内嵌简中][4KHQ高码/60FPS].Battle.of.Xiangjiang.River.2017.60FPS.2160p.WEB-DL.H265.10bit.AAC-TAG 19.48GB-2.jpg
血战湘江 [国语/内嵌简中][4KHQ高码/60FPS].Battle.of.Xiangjiang.River.2017.60FPS.2160p.WEB-DL.H265.10bit.AAC-TAG 19.48GB-3.png
血战湘江 [国语/内嵌简中][4KHQ高码/60FPS].Battle.of.Xiangjiang.River.2017.60FPS.2160p.WEB-DL.H265.10bit.AAC-TAG 19.48GB-4.png
血战湘江 [国语/内嵌简中][4KHQ高码/60FPS].Battle.of.Xiangjiang.River.2017.60FPS.2160p.WEB-DL.H265.10bit.AAC-TAG 19.48GB-5.png








回复

使用道具 举报

蓝光币
446
发表于 2024-3-23 19:47:41 | 显示全部楼层

楼主太厉害了!楼主,电影应该很好看我觉得蓝光电影网真是个好地方!
回复

使用道具 举报

蓝光币
859
发表于 2024-3-23 20:27:12 | 显示全部楼层
楼主发贴辛苦了,谢谢楼主分享!我觉得蓝光电影网是注册对了!
回复

使用道具 举报

蓝光币
688
发表于 2024-3-23 21:06:00 | 显示全部楼层
楼主发贴辛苦了,谢谢楼主分享!我觉得蓝光电影网是注册对了!
回复

使用道具 举报

蓝光币
99
发表于 2024-3-23 21:30:08 | 显示全部楼层
谢谢楼主回复发帖!
回复

使用道具 举报

蓝光币
37
发表于 2024-3-23 22:04:50 | 显示全部楼层

楼主太厉害了!楼主,电影应该很好看我觉得蓝光电影网真是个好地方!
回复

使用道具 举报

蓝光币
218
发表于 2024-3-24 07:04:49 | 显示全部楼层

这个帖子不回对不起自己!我想我是一天也不能离开蓝光电影网。
回复

使用道具 举报

蓝光币
212
发表于 2024-3-24 08:43:35 | 显示全部楼层

这东西我收了!谢谢楼主!蓝光电影网真好!
回复

使用道具 举报

蓝光币
2010
发表于 2024-3-24 21:40:14 | 显示全部楼层
哦,这部电影到现在才出来这个4K,挺意外的。
回复

使用道具 举报

蓝光币
366
发表于 2024-3-25 08:38:42 | 显示全部楼层
楼主发贴辛苦了,谢谢楼主分享
回复

使用道具 举报

懒得打字嘛,点击右侧快捷回复 【右侧内容,后台自定义】
您需要登录后才可以回帖 登录 | 立即加入

本版积分规则

Archiver| |网站地图

Copyright © 2024 Comsenz Inc. Powered by 蓝光电影网

本站内容由用户自主分享和转载自互联网,转载目的在于传递更多信息,并不代表本网赞同其观点和对其真实性负责。

如有侵权、违反国家法律政策行为,请联系我们,我们会第一时间及时清除和处理!

举报反馈邮箱:4k1080.com@gmail.com

快速回复 返回顶部 返回列表