找回密码

查看: 573|回复: 0

[剧情] 夜场/ 夜莺/ Nightbird [内封英字].Nightbird.2023.1080p.VMAX.WEB-DL.AAC2.0.x264-TAG 2.2GB

[复制链接]
蓝光币
1917
发表于 2024-4-2 10:14:36 | 显示全部楼层 |阅读模式
夜场/ 夜莺/ Nightbird [内封英字].Nightbird.2023.1080p.VMAX.WEB-DL.AAC2.0.x264-TAG 2.2GB-1.jpg


◎译  名 夜莺
◎片  名 夜莺Nightbird
◎年  代 2023
◎产  地 菲律宾
◎类  别 剧情
◎语  言 他加禄语 Pilipino
◎上映日期 2023-01-08(菲律宾)
◎IMDb评分  6.7/10 from 55 users
◎IMDb链接  https://www.imdb.com/title/tt25568296/
◎豆瓣评分 4.5/10 from 85 users
◎豆瓣链接 https://movie.douban.com/subject/36212723/
◎片  长 97分钟
◎主  演 Christine Bermas
       锡德·卢塞罗 Sid Lucero
       费利克斯·罗科 Felix Roco
       Arron Villaflor Arron Villaflor
       马克·安东尼·费尔南德斯 Mark Anthony Fernandez
       Yayo Aguila Yayo Aguila

◎简  介

  克里斯汀·贝尔马斯 (Christine Bermas) 沉默寡言,却又致命。在朋友放置的派对上,瑞秋碰到了四个汉子。当汉子强奸瑞秋和她的朋友时,布满酒精和毒品的夜晚变得紊乱。瑞秋立誓要不惜一切价格报仇。

  1. General
  2. Unique ID                                : 5057495925892145393990377030388755615 (0x3CE09CD072BE81C8B833E13872B2C9F)
  3. Complete name                            : Nightbird.2023.1080p.VMAX.WEB-DL.AAC2.0.x264-TAG.mkv
  4. Format                                  : Matroska
  5. Format version                          : Version 4
  6. File size                                : 2.20 GiB
  7. Duration                                : 1 h 37 min
  8. Overall bit rate                        : 3 251 kb/s
  9. Movie name                              : Nightbird.2023.1080p.VMAX.WEB-DL.AAC2.0.x264-MARK
  10. Writing application                      : mkvmerge v73.0.0 ('25 or 6 to 4') 64-bit
  11. Writing library                          : libebml v1.4.4 + libmatroska v1.7.1

  12. Video
  13. ID                                      : 1
  14. Format                                  : AVC
  15. Format/Info                              : Advanced Video Codec
  16. Format profile                          : Main@L4
  17. Format settings                          : CABAC / 4 Ref Frames
  18. Format settings, CABAC                  : Yes
  19. Format settings, Reference frames        : 4 frames
  20. Codec ID                                : V_MPEG4/ISO/AVC
  21. Duration                                : 1 h 37 min
  22. Bit rate                                : 3 151 kb/s
  23. Width                                    : 1 920 pixels
  24. Height                                  : 1 080 pixels
  25. Display aspect ratio                    : 16:9
  26. Frame rate mode                          : Constant
  27. Frame rate                              : 30.000 FPS
  28. Color space                              : YUV
  29. Chroma subsampling                      : 4:2:0
  30. Bit depth                                : 8 bits
  31. Scan type                                : Progressive
  32. Bits/(Pixel*Frame)                      : 0.051
  33. Stream size                              : 2.14 GiB (97%)
  34. Writing library                          : x264 core 142 r2495 6a301b6
  35. Encoding settings                        : cabac=1 / ref=3 / deblock=1:0:0 / analyse=0x1:0x111 / me=hex / subme=7 / psy=1 / psy_rd=1.00:0.00 / mixed_ref=1 / me_range=16 / chroma_me=1 / trellis=1 / 8x8dct=0 / cqm=0 / deadzone=21,11 / fast_pskip=1 / chroma_qp_offset=-2 / threads=6 / lookahead_threads=1 / sliced_threads=0 / nr=0 / decimate=1 / interlaced=0 / bluray_compat=0 / constrained_intra=0 / bframes=3 / b_pyramid=2 / b_adapt=1 / b_bias=0 / direct=1 / weightb=1 / open_gop=0 / weightp=2 / keyint=60 / keyint_min=31 / scenecut=0 / intra_refresh=0 / rc_lookahead=40 / rc=crf / mbtree=1 / crf=20.0 / qcomp=0.60 / qpmin=0 / qpmax=69 / qpstep=4 / vbv_maxrate=3500 / vbv_bufsize=3200 / crf_max=0.0 / nal_hrd=none / filler=0 / ip_ratio=1.40 / aq=1:1.00
  36. Default                                  : Yes
  37. Forced                                  : No

  38. Audio
  39. ID                                      : 2
  40. Format                                  : AAC LC
  41. Format/Info                              : Advanced Audio Codec Low Complexity
  42. Codec ID                                : A_AAC-2
  43. Duration                                : 1 h 37 min
  44. Bit rate                                : 96.0 kb/s
  45. Channel(s)                              : 2 channels
  46. Channel layout                          : L R
  47. Sampling rate                            : 48.0 kHz
  48. Frame rate                              : 46.875 FPS (1024 SPF)
  49. Compression mode                        : Lossy
  50. Stream size                              : 66.9 MiB (3%)
  51. Language                                : Tagalog
  52. Default                                  : Yes
  53. Forced                                  : No

  54. Text
  55. ID                                      : 3
  56. Format                                  : UTF-8
  57. Codec ID                                : S_TEXT/UTF8
  58. Codec ID/Info                            : UTF-8 Plain Text
  59. Duration                                : 1 h 34 min
  60. Bit rate                                : 40 b/s
  61. Frame rate                              : 0.196 FPS
  62. Count of elements                        : 1115
  63. Stream size                              : 27.9 KiB (0%)
  64. Language                                : English
  65. Default                                  : Yes
  66. Forced                                  : No

  67. ReportBy                                : MediaInfoLib - v22.09
复制代码
夜场/ 夜莺/ Nightbird [内封英字].Nightbird.2023.1080p.VMAX.WEB-DL.AAC2.0.x264-TAG 2.2GB-2.jpg

夜场/ 夜莺/ Nightbird [内封英字].Nightbird.2023.1080p.VMAX.WEB-DL.AAC2.0.x264-TAG 2.2GB-3.png

夜场/ 夜莺/ Nightbird [内封英字].Nightbird.2023.1080p.VMAX.WEB-DL.AAC2.0.x264-TAG 2.2GB-4.png

夜场/ 夜莺/ Nightbird [内封英字].Nightbird.2023.1080p.VMAX.WEB-DL.AAC2.0.x264-TAG 2.2GB-5.png

夜场/ 夜莺/ Nightbird [内封英字].Nightbird.2023.1080p.VMAX.WEB-DL.AAC2.0.x264-TAG 2.2GB-6.png






回复

使用道具 举报

懒得打字嘛,点击右侧快捷回复 【右侧内容,后台自定义】
您需要登录后才可以回帖 登录 | 立即加入

本版积分规则

Archiver| |网站地图

Copyright © 2024 Comsenz Inc. Powered by 蓝光电影网

本站内容由用户自主分享和转载自互联网,转载目的在于传递更多信息,并不代表本网赞同其观点和对其真实性负责。

如有侵权、违反国家法律政策行为,请联系我们,我们会第一时间及时清除和处理!

举报反馈邮箱:4k1080.com@gmail.com

快速回复 返回顶部 返回列表