找回密码

蓝光电影网

查看: 283|回复: 1

[剧情] 触礁/岩石上 On.the.Rocks.2020.1080p.BluRay.REMUX.AVC.DTS-HD.MA.5.1-FGT 19.76GB

[复制链接]
蓝光币
733
发表于 2021-10-29 00:05:06 | 显示全部楼层 |阅读模式
[img][/img]

◎译  名 触礁/岩石上
◎片  名 On the Rocks
◎年  代 2020
◎产  地 美国
◎类  别 剧情 / 笑剧 / 冒险
◎语  言 英语
◎上映日期 2020-09-22(纽约电影节) / 2020-10-23(美国)
◎豆瓣评分 6.6/10 from 2764 users
◎豆瓣链接 https://movie.douban.com/subject/30432861/
◎片  长 97分钟
◎导  演 索菲亚·科波拉 Sofia Coppola
◎编  剧 索菲亚·科波拉 Sofia Coppola
◎主  演 比尔·默瑞 Bill Murray
       拉什达·琼斯 Rashida Jones
       马龙·韦恩斯 Marlon Wayans
       珍妮·斯蕾特 Jenny Slate
       杰西卡·亨维克 Jessica Henwick
       芭芭拉·贝恩 Barbara Bain
       纳迪雅·达珍妮 Nadia Dajani
       朱尔斯·威尔科克斯 Jules Willcox
       娜缇娅·蒂恩 Natia Dune
       桃乐丝·麦卡锡 Doris McCarthy
       南希·欧泽力 Nancy Ozelli
       Mike Keller Mike Keller
       华特鲁迪丝·巴克 Waltrudis Buck
       西蒙娜·拉马德里德 Ximena Lamadrid
◎标  签 美国 | 索菲亚·科波拉 | 2020 | 笑剧 | 剧情 | SofiaCoppola | BillMurray | 美国电影
◎简  介


  索菲亚·科波拉将执导新片《触礁》(On the Rocks),比尔·莫瑞、拉什达·琼斯主演,这将是苹果和A24合作的第一部电影,下月开拍。
  
  剧本由科波拉编写,报告一个年轻妈妈和她有豪杰色彩的父亲重新联系,在纽约展开一段冒险。
◎获奖情况
  第78届金球奖 ?(2021)
  电影类最好男配角(提名) 比尔·默瑞
  
  第71届美国剪辑工会奖 ?(2021)
  音乐/笑剧片最好剪辑(提名) 莎拉·弗拉克
  
  第26届美国批评家挑选电影奖 ?(2021)
  最好男配角(提名) 比尔·默瑞
  最好笑剧片(提名)
  
  第25届金卫星奖 ?(2021)
  电影部分最好笑剧/音乐片(提名)
  电影部分笑剧/音乐片最好女配角(提名) 拉什达·琼斯
  电影部分最好男配角(提名) 比尔·默瑞
  
  第33届芝加哥影评人协会奖 ?(2020)
  最好男配角(提名) 比尔·默瑞
  
  第24届美国在线影评人协会奖 ?(2021)
  最好男配角(提名) 比尔·默瑞
  1. Video
  2. ID                                       : 1
  3. ID in the original source medium         : 4113 (0x1011)
  4. Format                                   : AVC
  5. Format/Info                              : Advanced Video Codec
  6. Format profile                           : [email protected]
  7. Format settings                          : CABAC / 4 Ref Frames
  8. Format settings, CABAC                   : Yes
  9. Format settings, Reference frames        : 4 frames
  10. Codec ID                                 : V_MPEG4/ISO/AVC
  11. Duration                                 : 1 h 36 min
  12. Bit rate mode                            : Variable
  13. Bit rate                                 : 25.8 Mb/s
  14. Maximum bit rate                         : 37.0 Mb/s
  15. Width                                    : 1 920 pixels
  16. Height                                   : 1 080 pixels
  17. Display aspect ratio                     : 16:9
  18. Frame rate mode                          : Constant
  19. Frame rate                               : 23.976 (24000/1001/189150) FPS
  20. Color space                              : YUV
  21. Chroma subsampling                       : 4:2:0
  22. Bit depth                                : 8 bits
  23. Scan type                                : Progressive
  24. Bits/(Pixel*Frame)                       : 0.519
  25. Stream size                              : 17.5 GiB (88%)
  26. Language                                 : English
  27. Default                                  : No
  28. Forced                                   : No
  29. Original source medium                   : Blu-ray
  30. Audio
  31. ID                                       : 2
  32. ID in the original source medium         : 4352 (0x1100)
  33. Format                                   : DTS XLL
  34. Format/Info                              : Digital Theater Systems
  35. Commercial name                          : DTS-HD Master Audio
  36. Codec ID                                 : A_DTS
  37. Duration                                 : 1 h 36 min
  38. Bit rate mode                            : Variable
  39. Bit rate                                 : 3 342 kb/s
  40. Channel(s)                               : 6 channels
  41. Channel layout                           : C L R Ls Rs LFE
  42. Sampling rate                            : 48.0 kHz
  43. Frame rate                               : 93.750 FPS (512 SPF)
  44. Bit depth                                : 24 bits
  45. Compression mode                         : Lossless
  46. Stream size                              : 2.26 GiB (11%)
  47. Title                                    : DTS-HD MA 5.1
  48. Language                                 : English
  49. Default                                  : Yes
  50. Forced                                   : No
  51. Original source medium                   : Blu-ray
  52. Text #1
  53. ID                                       : 3
  54. Format                                   : UTF-8
  55. Codec ID                                 : S_TEXT/UTF8
  56. Codec ID/Info                            : UTF-8 Plain Text
  57. Duration                                 : 1 h 29 min
  58. Bit rate                                 : 70 b/s
  59. Count of elements                        : 1413
  60. Stream size                              : 46.0 KiB (0%)
  61. Title                                    : SRT
  62. Language                                 : English
  63. Default                                  : Yes
  64. Forced                                   : No
  65. Text #2
  66. ID                                       : 4
  67. ID in the original source medium         : 4608 (0x1200)
  68. Format                                   : PGS
  69. Muxing mode                              : zlib
  70. Codec ID                                 : S_HDMV/PGS
  71. Codec ID/Info                            : Picture based subtitle format used on BDs/HD-DVDs
  72. Duration                                 : 1 h 29 min
  73. Bit rate                                 : 48.3 kb/s
  74. Count of elements                        : 3176
  75. Stream size                              : 31.0 MiB (0%)
  76. Language                                 : English
  77. Default                                  : No
  78. Forced                                   : No
  79. Original source medium                   : Blu-ray
  80. Text #3
  81. ID                                       : 5
  82. ID in the original source medium         : 4609 (0x1201)
  83. Format                                   : PGS
  84. Muxing mode                              : zlib
  85. Codec ID                                 : S_HDMV/PGS
  86. Codec ID/Info                            : Picture based subtitle format used on BDs/HD-DVDs
  87. Duration                                 : 1 h 29 min
  88. Bit rate                                 : 35.8 kb/s
  89. Count of elements                        : 2748
  90. Stream size                              : 22.9 MiB (0%)
  91. Language                                 : Spanish
  92. Default                                  : No
  93. Forced                                   : No
  94. Original source medium                   : Blu-ray
  95. Menu
  96. 00:00:00.000                             : en:Chapter 01
  97. 00:05:39.630                             : en:Chapter 02
  98. 00:13:43.906                             : en:Chapter 03
  99. 00:18:19.348                             : en:Chapter 04
  100. 00:26:25.125                             : en:Chapter 05
  101. 00:31:55.622                             : en:Chapter 06
  102. 00:37:44.011                             : en:Chapter 07
  103. 00:43:19.013                             : en:Chapter 08
  104. 00:48:05.757                             : en:Chapter 09
  105. 00:56:44.609                             : en:Chapter 10
  106. 00:59:28.856                             : en:Chapter 11
  107. 01:04:44.297                             : en:Chapter 12
  108. 01:08:22.723                             : en:Chapter 13
  109. 01:14:19.538                             : en:Chapter 14
  110. 01:22:09.049                             : en:Chapter 15
  111. 01:27:49.097                             : en:Chapter 16
复制代码






                                       
                                       

                                       
                                       
                                       




回复

使用道具 举报

蓝光币
31
发表于 2021-10-29 08:21:32 | 显示全部楼层
楼主发贴辛苦了,谢谢楼主分享!我觉得蓝光电影网是注册对了!
回复 支持 反对

使用道具 举报

懒得打字嘛,点击右侧快捷回复 【右侧内容,后台自定义】
您需要登录后才可以回帖 登录 | 立即加入

本版积分规则

Archiver|小黑屋| 蓝光电影网 |网站地图

Copyright © 2021 Comsenz Inc. Powered by 蓝光电影网

蓝光电影网

本站内容由用户自主分享和转载自互联网,转载目的在于传递更多信息,并不代表本网赞同其观点和对其真实性负责。

如有侵权、违反国家法律政策行为,请联系我们,我们会第一时间及时清除和处理!

举报反馈邮箱:[email protected]

快速回复 返回顶部 返回列表