找回密码

蓝光电影网

查看: 88|回复: 1

[2160p] 麦克白的悲剧 The.Tragedy.of.Macbeth.2021.2160p.ATVP.WEB-DL.x265.10bit.SDR.DD5.1.Atmos-TEPES 15.57GB

[复制链接]
蓝光币
730
发表于 2022-1-14 11:45:22 | 显示全部楼层 |阅读模式


◎译  名 麦克白的悲剧/Macbeth
◎片  名 The Tragedy of Macbeth
◎年  代 2021
◎产  地 美国
◎类  别 剧情
◎语  言 英语
◎上映日期 2021-09-24(纽约电影节) / 2021-12-25(美国) / 2022-01-14(美国收集)
◎豆瓣评分 7.9/10 from 314 users
◎豆瓣链接 https://movie.douban.com/subject/33386178/
◎片  长 105分钟
◎导  演 乔尔·科恩 Joel Coen
◎编  剧 乔尔·科恩 Joel Coen / 威廉·莎士比亚 William Shakespeare
◎主  演 丹泽尔·华盛顿 Denzel Washington
       弗兰西斯·麦克多蒙德 Frances McDormand
       阿历克斯·哈赛尔 Alex Hassell
       博迪·卡维尔 Bertie Carvel
       布莱丹·格里森 Brendan Gleeson
       科里·霍金斯 Corey Hawkins
       哈利·米尔林 Harry Melling
       迈尔斯·安德森 Miles Anderson
       马特·赫尔姆 Matt Helm
       摩西·英格拉姆 Moses Ingram
       凯瑟琳·亨特 Kathryn Hunter
       布莱恩·汤普森 Brian Thompson
       斯蒂芬·鲁特 Stephen Root
       罗伯特·吉尔贝托 Robert Gilbert
       伊桑·哈钦森 Ethan Hutchison
       理查德·肖特 Richard Short
       西恩·帕特里克·汤玛斯 Sean Patrick Thomas
       拉尔夫·伊内森 Ralph Ineson
       杰弗森·梅斯 Jefferson Mays
       奥利维亚·华盛顿 Olivia Washington
       韦恩·T·卡尔 Wayne T. Carr
       雅各布·麦卡锡 Jacob McCarthy
       麦克斯·贝克 Max Baker
◎简  介


  影片以华盛顿饰演的麦克白为主线,他被三个女巫压服,以为自己必定要成为苏格兰国王。他和野心勃勃的妻子麦克白夫人(麦克多蒙德饰)一路,起头把预言酿成现实……成果是大量的鲜血、变节和灭亡。格里森饰演国王邓肯,米尔林饰演邓肯的儿子马尔科姆,霍金斯饰演麦克达夫。布鲁诺·德尔邦内尔([醉乡民谣])担任摄影师。
◎获奖情况
  第79届金球奖 ?(2022)
  电影类剧情片最好男配角(提名) 丹泽尔·华盛顿
  
  第28届美国演员工会奖 ?(2022)
  电影奖最好男配角(提名) 丹泽尔·华盛顿
  
  第87届纽约影评人协会奖 ?(2021)
  最好女配角 凯瑟琳·亨特
  1. Video
  2. ID                                       : 1
  3. Format                                   : HEVC
  4. Format/Info                              : High Efficiency Video Coding
  5. Format profile                           : Main [email protected]@High
  6. Codec ID                                 : V_MPEGH/ISO/HEVC
  7. Duration                                 : 1 h 45 min
  8. Bit rate                                 : 20.4 Mb/s
  9. Width                                    : 2 956 pixels
  10. Height                                   : 2 160 pixels
  11. Display aspect ratio                     : 4:3
  12. Frame rate mode                          : Constant
  13. Frame rate                               : 23.976 FPS
  14. Color space                              : YUV
  15. Chroma subsampling                       : 4:2:0
  16. Bit depth                                : 10 bits
  17. Bits/(Pixel*Frame)                       : 0.133
  18. Stream size                              : 15.0 GiB (96%)
  19. Language                                 : English
  20. Default                                  : Yes
  21. Forced                                   : No
  22. Color range                              : Limited
  23. Color primaries                          : BT.709
  24. Transfer characteristics                 : BT.709
  25. Matrix coefficients                      : BT.709
  26. Audio
  27. ID                                       : 2
  28. Format                                   : E-AC-3 JOC
  29. Format/Info                              : Enhanced AC-3 with Joint Object Coding
  30. Commercial name                          : Dolby Digital Plus with Dolby Atmos
  31. Codec ID                                 : A_EAC3
  32. Duration                                 : 1 h 45 min
  33. Bit rate mode                            : Constant
  34. Bit rate                                 : 768 kb/s
  35. Channel(s)                               : 6 channels
  36. Channel layout                           : L R C LFE Ls Rs
  37. Sampling rate                            : 48.0 kHz
  38. Frame rate                               : 31.250 FPS (1536 SPF)
  39. Compression mode                         : Lossy
  40. Stream size                              : 578 MiB (4%)
  41. Language                                 : English
  42. Service kind                             : Complete Main
  43. Default                                  : Yes
  44. Forced                                   : No
  45. Complexity index                         : 16
  46. Number of dynamic objects                : 15
  47. Bed channel count                        : 1 channel
  48. Bed channel configuration                : LFE
  49. Text #1
  50. ID                                       : 3
  51. Format                                   : UTF-8
  52. Codec ID                                 : S_TEXT/UTF8
  53. Codec ID/Info                            : UTF-8 Plain Text
  54. Duration                                 : 1 h 39 min
  55. Bit rate                                 : 75 b/s
  56. Count of elements                        : 1346
  57. Stream size                              : 55.4 KiB (0%)
  58. Language                                 : English
  59. Default                                  : No
  60. Forced                                   : No
  61. Text #2
  62. ID                                       : 4
  63. Format                                   : UTF-8
  64. Codec ID                                 : S_TEXT/UTF8
  65. Codec ID/Info                            : UTF-8 Plain Text
  66. Duration                                 : 1 h 41 min
  67. Bit rate                                 : 80 b/s
  68. Count of elements                        : 1487
  69. Stream size                              : 60.0 KiB (0%)
  70. Title                                    : SDH
  71. Language                                 : English
  72. Default                                  : No
  73. Forced                                   : No
  74. Text #3
  75. ID                                       : 5
  76. Format                                   : UTF-8
  77. Codec ID                                 : S_TEXT/UTF8
  78. Codec ID/Info                            : UTF-8 Plain Text
  79. Duration                                 : 1 h 44 min
  80. Bit rate                                 : 95 b/s
  81. Count of elements                        : 1349
  82. Stream size                              : 73.3 KiB (0%)
  83. Language                                 : Arabic
  84. Default                                  : No
  85. Forced                                   : No
  86. Text #4
  87. ID                                       : 6
  88. Format                                   : UTF-8
  89. Codec ID                                 : S_TEXT/UTF8
  90. Codec ID/Info                            : UTF-8 Plain Text
  91. Duration                                 : 1 h 44 min
  92. Bit rate                                 : 112 b/s
  93. Count of elements                        : 1266
  94. Stream size                              : 86.3 KiB (0%)
  95. Language                                 : Bulgarian
  96. Default                                  : No
  97. Forced                                   : No
  98. Text #5
  99. ID                                       : 7
  100. Format                                   : UTF-8
  101. Codec ID                                 : S_TEXT/UTF8
  102. Codec ID/Info                            : UTF-8 Plain Text
  103. Duration                                 : 1 h 44 min
  104. Bit rate                                 : 67 b/s
  105. Count of elements                        : 1349
  106. Stream size                              : 51.7 KiB (0%)
  107. Title                                    : Simplified
  108. Language                                 : Chinese
  109. Default                                  : No
  110. Forced                                   : No
  111. Text #6
  112. ID                                       : 8
  113. Format                                   : UTF-8
  114. Codec ID                                 : S_TEXT/UTF8
  115. Codec ID/Info                            : UTF-8 Plain Text
  116. Duration                                 : 1 h 44 min
  117. Bit rate                                 : 61 b/s
  118. Count of elements                        : 1350
  119. Stream size                              : 47.0 KiB (0%)
  120. Title                                    : Traditional
  121. Language                                 : Chinese
  122. Default                                  : No
  123. Forced                                   : No
  124. Text #7
  125. ID                                       : 9
  126. Format                                   : UTF-8
  127. Codec ID                                 : S_TEXT/UTF8
  128. Codec ID/Info                            : UTF-8 Plain Text
  129. Duration                                 : 1 h 44 min
  130. Bit rate                                 : 62 b/s
  131. Count of elements                        : 1279
  132. Stream size                              : 48.0 KiB (0%)
  133. Language                                 : Czech
  134. Default                                  : No
  135. Forced                                   : No
  136. Text #8
  137. ID                                       : 10
  138. Format                                   : UTF-8
  139. Codec ID                                 : S_TEXT/UTF8
  140. Codec ID/Info                            : UTF-8 Plain Text
  141. Duration                                 : 1 h 44 min
  142. Bit rate                                 : 69 b/s
  143. Count of elements                        : 1281
  144. Stream size                              : 53.1 KiB (0%)
  145. Language                                 : Danish
  146. Default                                  : No
  147. Forced                                   : No
  148. Text #9
  149. ID                                       : 11
  150. Format                                   : UTF-8
  151. Codec ID                                 : S_TEXT/UTF8
  152. Codec ID/Info                            : UTF-8 Plain Text
  153. Duration                                 : 1 h 44 min
  154. Bit rate                                 : 71 b/s
  155. Count of elements                        : 1354
  156. Stream size                              : 54.7 KiB (0%)
  157. Language                                 : German
  158. Default                                  : No
  159. Forced                                   : No
  160. Text #10
  161. ID                                       : 12
  162. Format                                   : UTF-8
  163. Codec ID                                 : S_TEXT/UTF8
  164. Codec ID/Info                            : UTF-8 Plain Text
  165. Duration                                 : 1 h 44 min
  166. Bit rate                                 : 125 b/s
  167. Count of elements                        : 1336
  168. Stream size                              : 95.8 KiB (0%)
  169. Language                                 : Greek
  170. Default                                  : No
  171. Forced                                   : No
  172. Text #11
  173. ID                                       : 13
  174. Format                                   : UTF-8
  175. Codec ID                                 : S_TEXT/UTF8
  176. Codec ID/Info                            : UTF-8 Plain Text
  177. Duration                                 : 1 h 44 min
  178. Bit rate                                 : 70 b/s
  179. Count of elements                        : 1358
  180. Stream size                              : 53.6 KiB (0%)
  181. Title                                    : Latin American
  182. Language                                 : Spanish
  183. Default                                  : No
  184. Forced                                   : No
  185. Text #12
  186. ID                                       : 14
  187. Format                                   : UTF-8
  188. Codec ID                                 : S_TEXT/UTF8
  189. Codec ID/Info                            : UTF-8 Plain Text
  190. Duration                                 : 1 h 44 min
  191. Bit rate                                 : 70 b/s
  192. Count of elements                        : 1356
  193. Stream size                              : 53.7 KiB (0%)
  194. Language                                 : Spanish
  195. Default                                  : No
  196. Forced                                   : No
  197. Text #13
  198. ID                                       : 15
  199. Format                                   : UTF-8
  200. Codec ID                                 : S_TEXT/UTF8
  201. Codec ID/Info                            : UTF-8 Plain Text
  202. Duration                                 : 1 h 44 min
  203. Bit rate                                 : 63 b/s
  204. Count of elements                        : 1242
  205. Stream size                              : 48.7 KiB (0%)
  206. Language                                 : Estonian
  207. Default                                  : No
  208. Forced                                   : No
  209. Text #14
  210. ID                                       : 16
  211. Format                                   : UTF-8
  212. Codec ID                                 : S_TEXT/UTF8
  213. Codec ID/Info                            : UTF-8 Plain Text
  214. Duration                                 : 1 h 44 min
  215. Bit rate                                 : 67 b/s
  216. Count of elements                        : 1338
  217. Stream size                              : 51.6 KiB (0%)
  218. Language                                 : Finnish
  219. Default                                  : No
  220. Forced                                   : No
  221. Text #15
  222. ID                                       : 17
  223. Format                                   : UTF-8
  224. Codec ID                                 : S_TEXT/UTF8
  225. Codec ID/Info                            : UTF-8 Plain Text
  226. Duration                                 : 1 h 44 min
  227. Bit rate                                 : 74 b/s
  228. Count of elements                        : 1539
  229. Stream size                              : 56.7 KiB (0%)
  230. Title                                    : Canadian
  231. Language                                 : French
  232. Default                                  : No
  233. Forced                                   : No
  234. Text #16
  235. ID                                       : 18
  236. Format                                   : UTF-8
  237. Codec ID                                 : S_TEXT/UTF8
  238. Codec ID/Info                            : UTF-8 Plain Text
  239. Duration                                 : 1 h 44 min
  240. Bit rate                                 : 74 b/s
  241. Count of elements                        : 1539
  242. Stream size                              : 56.7 KiB (0%)
  243. Language                                 : French
  244. Default                                  : No
  245. Forced                                   : No
  246. Text #17
  247. ID                                       : 19
  248. Format                                   : UTF-8
  249. Codec ID                                 : S_TEXT/UTF8
  250. Codec ID/Info                            : UTF-8 Plain Text
  251. Duration                                 : 1 h 44 min
  252. Bit rate                                 : 89 b/s
  253. Count of elements                        : 1350
  254. Stream size                              : 68.3 KiB (0%)
  255. Language                                 : Hebrew
  256. Default                                  : No
  257. Forced                                   : No
  258. Text #18
  259. ID                                       : 20
  260. Format                                   : UTF-8
  261. Codec ID                                 : S_TEXT/UTF8
  262. Codec ID/Info                            : UTF-8 Plain Text
  263. Duration                                 : 1 h 44 min
  264. Bit rate                                 : 209 b/s
  265. Count of elements                        : 1350
  266. Stream size                              : 160 KiB (0%)
  267. Language                                 : Hindi
  268. Default                                  : No
  269. Forced                                   : No
  270. Text #19
  271. ID                                       : 21
  272. Format                                   : UTF-8
  273. Codec ID                                 : S_TEXT/UTF8
  274. Codec ID/Info                            : UTF-8 Plain Text
  275. Duration                                 : 1 h 44 min
  276. Bit rate                                 : 72 b/s
  277. Count of elements                        : 1312
  278. Stream size                              : 55.4 KiB (0%)
  279. Language                                 : Hungarian
  280. Default                                  : No
  281. Forced                                   : No
  282. Text #20
  283. ID                                       : 22
  284. Format                                   : UTF-8
  285. Codec ID                                 : S_TEXT/UTF8
  286. Codec ID/Info                            : UTF-8 Plain Text
  287. Duration                                 : 1 h 44 min
  288. Bit rate                                 : 76 b/s
  289. Count of elements                        : 1350
  290. Stream size                              : 58.5 KiB (0%)
  291. Language                                 : Indonesian
  292. Default                                  : No
  293. Forced                                   : No
  294. Text #21
  295. ID                                       : 23
  296. Format                                   : UTF-8
  297. Codec ID                                 : S_TEXT/UTF8
  298. Codec ID/Info                            : UTF-8 Plain Text
  299. Duration                                 : 1 h 44 min
  300. Bit rate                                 : 75 b/s
  301. Count of elements                        : 1352
  302. Stream size                              : 57.4 KiB (0%)
  303. Language                                 : Italian
  304. Default                                  : No
  305. Forced                                   : No
  306. Text #22
  307. ID                                       : 24
  308. Format                                   : UTF-8
  309. Codec ID                                 : S_TEXT/UTF8
  310. Codec ID/Info                            : UTF-8 Plain Text
  311. Duration                                 : 1 h 44 min
  312. Bit rate                                 : 65 b/s
  313. Count of elements                        : 1202
  314. Stream size                              : 50.2 KiB (0%)
  315. Language                                 : Japanese
  316. Default                                  : No
  317. Forced                                   : No
  318. Text #23
  319. ID                                       : 25
  320. Format                                   : UTF-8
  321. Codec ID                                 : S_TEXT/UTF8
  322. Codec ID/Info                            : UTF-8 Plain Text
  323. Duration                                 : 1 h 44 min
  324. Bit rate                                 : 82 b/s
  325. Count of elements                        : 1350
  326. Stream size                              : 63.1 KiB (0%)
  327. Language                                 : Korean
  328. Default                                  : No
  329. Forced                                   : No
  330. Text #24
  331. ID                                       : 26
  332. Format                                   : UTF-8
  333. Codec ID                                 : S_TEXT/UTF8
  334. Codec ID/Info                            : UTF-8 Plain Text
  335. Duration                                 : 1 h 44 min
  336. Bit rate                                 : 72 b/s
  337. Count of elements                        : 1349
  338. Stream size                              : 55.2 KiB (0%)
  339. Language                                 : Lithuanian
  340. Default                                  : No
  341. Forced                                   : No
  342. Text #25
  343. ID                                       : 27
  344. Format                                   : UTF-8
  345. Codec ID                                 : S_TEXT/UTF8
  346. Codec ID/Info                            : UTF-8 Plain Text
  347. Duration                                 : 1 h 44 min
  348. Bit rate                                 : 71 b/s
  349. Count of elements                        : 1336
  350. Stream size                              : 54.4 KiB (0%)
  351. Language                                 : Latvian
  352. Default                                  : No
  353. Forced                                   : No
  354. Text #26
  355. ID                                       : 28
  356. Format                                   : UTF-8
  357. Codec ID                                 : S_TEXT/UTF8
  358. Codec ID/Info                            : UTF-8 Plain Text
  359. Duration                                 : 1 h 44 min
  360. Bit rate                                 : 70 b/s
  361. Count of elements                        : 1350
  362. Stream size                              : 54.0 KiB (0%)
  363. Language                                 : Malay
  364. Default                                  : No
  365. Forced                                   : No
  366. Text #27
  367. ID                                       : 29
  368. Format                                   : UTF-8
  369. Codec ID                                 : S_TEXT/UTF8
  370. Codec ID/Info                            : UTF-8 Plain Text
  371. Duration                                 : 1 h 44 min
  372. Bit rate                                 : 68 b/s
  373. Count of elements                        : 1211
  374. Stream size                              : 52.0 KiB (0%)
  375. Language                                 : Dutch
  376. Default                                  : No
  377. Forced                                   : No
  378. Text #28
  379. ID                                       : 30
  380. Format                                   : UTF-8
  381. Codec ID                                 : S_TEXT/UTF8
  382. Codec ID/Info                            : UTF-8 Plain Text
  383. Duration                                 : 1 h 44 min
  384. Bit rate                                 : 65 b/s
  385. Count of elements                        : 1305
  386. Stream size                              : 50.4 KiB (0%)
  387. Language                                 : Norwegian
  388. Default                                  : No
  389. Forced                                   : No
  390. Text #29
  391. ID                                       : 31
  392. Format                                   : UTF-8
  393. Codec ID                                 : S_TEXT/UTF8
  394. Codec ID/Info                            : UTF-8 Plain Text
  395. Duration                                 : 1 h 44 min
  396. Bit rate                                 : 71 b/s
  397. Count of elements                        : 1350
  398. Stream size                              : 55.0 KiB (0%)
  399. Language                                 : Polish
  400. Default                                  : No
  401. Forced                                   : No
  402. Text #30
  403. ID                                       : 32
  404. Format                                   : UTF-8
  405. Codec ID                                 : S_TEXT/UTF8
  406. Codec ID/Info                            : UTF-8 Plain Text
  407. Duration                                 : 1 h 44 min
  408. Bit rate                                 : 73 b/s
  409. Count of elements                        : 1351
  410. Stream size                              : 55.9 KiB (0%)
  411. Language                                 : Portuguese
  412. Default                                  : No
  413. Forced                                   : No
  414. Text #31
  415. ID                                       : 33
  416. Format                                   : UTF-8
  417. Codec ID                                 : S_TEXT/UTF8
  418. Codec ID/Info                            : UTF-8 Plain Text
  419. Duration                                 : 1 h 44 min
  420. Bit rate                                 : 73 b/s
  421. Count of elements                        : 1287
  422. Stream size                              : 56.4 KiB (0%)
  423. Title                                    : Brazilian
  424. Language                                 : Portuguese
  425. Default                                  : No
  426. Forced                                   : No
  427. Text #32
  428. ID                                       : 34
  429. Format                                   : UTF-8
  430. Codec ID                                 : S_TEXT/UTF8
  431. Codec ID/Info                            : UTF-8 Plain Text
  432. Duration                                 : 1 h 44 min
  433. Bit rate                                 : 106 b/s
  434. Count of elements                        : 1369
  435. Stream size                              : 81.1 KiB (0%)
  436. Language                                 : Russian
  437. Default                                  : No
  438. Forced                                   : No
  439. Text #33
  440. ID                                       : 35
  441. Format                                   : UTF-8
  442. Codec ID                                 : S_TEXT/UTF8
  443. Codec ID/Info                            : UTF-8 Plain Text
  444. Duration                                 : 1 h 44 min
  445. Bit rate                                 : 65 b/s
  446. Count of elements                        : 1342
  447. Stream size                              : 49.8 KiB (0%)
  448. Language                                 : Slovak
  449. Default                                  : No
  450. Forced                                   : No
  451. Text #34
  452. ID                                       : 36
  453. Format                                   : UTF-8
  454. Codec ID                                 : S_TEXT/UTF8
  455. Codec ID/Info                            : UTF-8 Plain Text
  456. Duration                                 : 1 h 44 min
  457. Bit rate                                 : 62 b/s
  458. Count of elements                        : 1173
  459. Stream size                              : 47.6 KiB (0%)
  460. Language                                 : Slovenian
  461. Default                                  : No
  462. Forced                                   : No
  463. Text #35
  464. ID                                       : 37
  465. Format                                   : UTF-8
  466. Codec ID                                 : S_TEXT/UTF8
  467. Codec ID/Info                            : UTF-8 Plain Text
  468. Duration                                 : 1 h 44 min
  469. Bit rate                                 : 65 b/s
  470. Count of elements                        : 1267
  471. Stream size                              : 49.9 KiB (0%)
  472. Language                                 : Swedish
  473. Default                                  : No
  474. Forced                                   : No
  475. Text #36
  476. ID                                       : 38
  477. Format                                   : UTF-8
  478. Codec ID                                 : S_TEXT/UTF8
  479. Codec ID/Info                            : UTF-8 Plain Text
  480. Duration                                 : 1 h 44 min
  481. Bit rate                                 : 252 b/s
  482. Count of elements                        : 1350
  483. Stream size                              : 193 KiB (0%)
  484. Language                                 : Tamil
  485. Default                                  : No
  486. Forced                                   : No
  487. Text #37
  488. ID                                       : 39
  489. Format                                   : UTF-8
  490. Codec ID                                 : S_TEXT/UTF8
  491. Codec ID/Info                            : UTF-8 Plain Text
  492. Duration                                 : 1 h 44 min
  493. Bit rate                                 : 207 b/s
  494. Count of elements                        : 1350
  495. Stream size                              : 159 KiB (0%)
  496. Language                                 : Telugu
  497. Default                                  : No
  498. Forced                                   : No
  499. Text #38
  500. ID                                       : 40
  501. Format                                   : UTF-8
  502. Codec ID                                 : S_TEXT/UTF8
  503. Codec ID/Info                            : UTF-8 Plain Text
  504. Duration                                 : 1 h 44 min
  505. Bit rate                                 : 183 b/s
  506. Count of elements                        : 1349
  507. Stream size                              : 140 KiB (0%)
  508. Language                                 : Thai
  509. Default                                  : No
  510. Forced                                   : No
  511. Text #39
  512. ID                                       : 41
  513. Format                                   : UTF-8
  514. Codec ID                                 : S_TEXT/UTF8
  515. Codec ID/Info                            : UTF-8 Plain Text
  516. Duration                                 : 1 h 44 min
  517. Bit rate                                 : 75 b/s
  518. Count of elements                        : 1349
  519. Stream size                              : 57.7 KiB (0%)
  520. Language                                 : Turkish
  521. Default                                  : No
  522. Forced                                   : No
  523. Text #40
  524. ID                                       : 42
  525. Format                                   : UTF-8
  526. Codec ID                                 : S_TEXT/UTF8
  527. Codec ID/Info                            : UTF-8 Plain Text
  528. Duration                                 : 1 h 44 min
  529. Bit rate                                 : 106 b/s
  530. Count of elements                        : 1349
  531. Stream size                              : 81.1 KiB (0%)
  532. Language                                 : Ukrainian
  533. Default                                  : No
  534. Forced                                   : No
  535. Text #41
  536. ID                                       : 43
  537. Format                                   : UTF-8
  538. Codec ID                                 : S_TEXT/UTF8
  539. Codec ID/Info                            : UTF-8 Plain Text
  540. Duration                                 : 1 h 44 min
  541. Bit rate                                 : 92 b/s
  542. Count of elements                        : 1351
  543. Stream size                              : 70.8 KiB (0%)
  544. Language                                 : Vietnamese
  545. Default                                  : No
  546. Forced                                   : No
  547. Text #42
  548. ID                                       : 44
  549. Format                                   : UTF-8
  550. Codec ID                                 : S_TEXT/UTF8
  551. Codec ID/Info                            : UTF-8 Plain Text
  552. Duration                                 : 1 h 44 min
  553. Bit rate                                 : 66 b/s
  554. Count of elements                        : 1350
  555. Stream size                              : 50.8 KiB (0%)
  556. Title                                    : Cantonese
  557. Language                                 : Chinese
  558. Default                                  : No
  559. Forced                                   : No
复制代码







                                       
                                       

                                       
                                       
                                       




回复

使用道具 举报

蓝光币
58
发表于 2022-1-14 11:51:17 | 显示全部楼层
谢谢楼主
回复

使用道具 举报

懒得打字嘛,点击右侧快捷回复 【右侧内容,后台自定义】
您需要登录后才可以回帖 登录 | 立即加入

本版积分规则

Archiver|小黑屋| 蓝光电影网 |网站地图

Copyright © 2021 Comsenz Inc. Powered by 蓝光电影网

蓝光电影网

本站内容由用户自主分享和转载自互联网,转载目的在于传递更多信息,并不代表本网赞同其观点和对其真实性负责。

如有侵权、违反国家法律政策行为,请联系我们,我们会第一时间及时清除和处理!

举报反馈邮箱:[email protected]

快速回复 返回顶部 返回列表