找回密码

查看: 4214|回复: 3

超能查派/超人类:卓比 Chappie.2015.2160p.BluRay.x264.8bit.SDR.DTS-HD.MA.TrueHD.7.1.Atmos-SWTYBLZ 35.25GB

[复制链接]
蓝光币
1992
发表于 2017-12-19 09:53:44 | 显示全部楼层 |阅读模式
093955fmsax215flmyj8ls.jpg
◎译  名 超能查派/超人类:卓比/成人天下/查皮/伙伴
◎片  名 Chappie
◎年  代 2015
◎产  地 美国/墨西哥/南非
◎类  别 行动/科幻/惊悚
◎语  言 英语
◎上映日期 2015-03-06(美国)/2015-05-08(中国大陆)
◎IMDb评分6.8/10 from 197,833 users
◎IMDb链接http://www.imdb.com/title/tt1823672/
◎豆瓣评分 7.2/10 from 77,252 users
◎豆瓣链接 https://movie.douban.com/subject/6846893/
◎片  长 119分钟(中国大陆)/120分钟(美国)
◎导  演 尼尔·布洛姆坎普 Neill Blomkamp
◎主  演 休·杰克曼 Hugh Jackman
      西格妮·韦弗 Sigourney Weaver
      沙尔托·科普雷 Sharlto Copley
      戴夫·帕特尔 Dev Patel
      忍者 Ninja
      尤兰蒂·维瑟 Yo-Landi Visser
      霍塞·帕布罗·坎蒂罗 Jose Pablo Cantillo
      布兰登·奥雷 Brandon Auret
      约翰尼·赛力玛 Johnny Selema
      安德森·库珀 Anderson Cooper
      莫里斯·卡佩德 Maurice Carpede
      詹森·库伯 Jason Cope
      凯文·奥托 Kevin Otto
      克里斯·希尔兹 Chris Shields
      比尔·马钱特 Bill Marchant

◎简  介

  故事发生在2016年的南非约翰内斯堡,为了应对不竭爬升的犯罪率,某大型兵器公司开辟了全机械差人军队。他们将机械差人批量生产并投入利用,在冲击犯罪方面获得了使人注视标结果。作为开辟职员之一,法式员迪恩(戴夫·帕特尔 Dev Patel 饰)一向努力于制造出完全的野生智能机械人。直到某天,他的研讨获得冲破性停顿,可是并未获得老板米歇尔·布莱德利(西格妮·韦弗 Sigourney Weaver 饰)的支持。不宁愿失利的迪恩偷偷将一台未几前被打坏的机械差人带出公司,预备完善他的研讨,谁知半路被三名强盗劫持。在强盗的威胁下,迪恩将22号写入全新系统。
  22号以“查派”的名字更生,它的诞生行将改变很多人的命运……

◎获奖情况

  第14届美国视觉结果协会奖(2016)
  最好真人电影CG动画脚色(提名)

  第2届豆瓣电影年度榜单(2015)
  5月最受关注电影(提名)



  1. Video
  2. ID             : 1
  3. Format           : AVC
  4. Format/Info          : Advanced Video Codec
  5. Format profile         : [url=mailto:High@L5.1]High@L5.1[/url]
  6. Format settings        : CABAC / 5 Ref Frames
  7. Format settings, CABAC       : Yes
  8. Format settings, RefFrames     : 5 frames
  9. Codec ID           : V_MPEG4/ISO/AVC
  10. Duration           : 2 h 0 min
  11. Bit rate           : 30.9 Mb/s
  12. Width            : 3 840 pixels
  13. Height           : 1 600 pixels
  14. Display aspect ratio       : 2.40:1
  15. Frame rate mode        : Constant
  16. Frame rate           : 23.976 (24000/1001) FPS
  17. Color space          : YUV
  18. Chroma subsampling       : 4:2:0
  19. Bit depth          : 8 bits
  20. Scan type          : Progressive
  21. Bits/(Pixel*Frame)       : 0.210
  22. Stream size          : 26.0GB (74%)
  23. Title            : Chappie.2015.2160p.BluRay.x264.8bit.SDR.DTS-HD.MA.TrueHD.7.1.Atmos-SWTYBLZ
  24. Writing library        : x264 core 148 r2748 97eaef2
  25. Encoding settings        : cabac=1 / ref=5 / deblock=1:-1:-1 / analyse=0x3:0x113 / me=umh / subme=10 / psy=1 / psy_rd=1.00:0.15 / mixed_ref=1 / me_range=48 / chroma_me=1 / trellis=2 / 8x8dct=1 / cqm=0 / deadzone=21,11 / fast_pskip=1 / chroma_qp_offset=-3 / threads=50 / lookahead_threads=4 / sliced_threads=0 / nr=0 / decimate=0 / interlaced=0 / bluray_compat=0 / constrained_intra=0 / bframes=3 / b_pyramid=2 / b_adapt=2 / b_bias=0 / direct=3 / weightb=1 / open_gop=0 / weightp=2 / keyint=250 / keyint_min=23 / scenecut=40 / intra_refresh=0 / rc_lookahead=50 / rc=crf / mbtree=1 / crf=18.0 / qcomp=0.60 / qpmin=0 / qpmax=69 / qpstep=4 / ip_ratio=1.40 / aq=1:1.00
  26. Default            : Yes
  27. Forced           : No

  28. Audio #1
  29. ID             : 2
  30. Format           : TrueHD
  31. Format profile         : TrueHD+Atmos / TrueHD
  32. Codec ID           : A_TRUEHD
  33. Duration           : 2 h 0 min
  34. Bit rate mode          : Variable
  35. Bit rate           : 5 407 kb/s
  36. Maximum bit rate         : 8 448 kb/s
  37. Channel(s)           : Object Based / 8 channels
  38. Channel positions        : Object Based / Front: L C R, Side: L R, Back: L R, LFE
  39. Sampling rate          :/ 48.0 kHz
  40. Frame rate           : 1 200.000 FPS (40 SPF)
  41. Compression mode         : Lossless
  42. Stream size          : 4.54GB (13%)
  43. Title            : Chappie.2015.2160p.BluRay.x264.8bit.SDR.DTS-HD.MA.TrueHD.7.1.Atmos-SWTYBLZ
  44. Language           : English
  45. Default            : Yes
  46. Forced           : No

  47. Audio #2
  48. ID             : 3
  49. Format           : DTS
  50. Format/Info          : Digital Theater Systems
  51. Format profile         : MA / Core
  52. Codec ID           : A_DTS
  53. Duration           : 2 h 0 min
  54. Bit rate mode          : Variable / Constant
  55. Bit rate           : 4 369 kb/s / 1 509 kb/s
  56. Channel(s)           : 8 channels / 6 channels
  57. Channel positions        : Front: L C R, Side: L R, Back: L R, LFE / Front: L C R, Side: L R, LFE
  58. Sampling rate          : 48.0 kHz
  59. Frame rate           : 93.750 FPS (512 SPF)
  60. Bit depth          : 24 bits
  61. Compression mode         : Lossless / Lossy
  62. Stream size          : 3.67GB (10%)
  63. Title            : Chappie.2015.2160p.BluRay.x264.8bit.SDR.DTS-HD.MA.TrueHD.7.1.Atmos-SWTYBLZ
  64. Language           : English
  65. Default            : No
  66. Forced           : No

  67. Audio #3
  68. ID             : 4
  69. Format           : AC-3
  70. Format/Info          : Audio Coding 3
  71. Codec ID           : A_AC3
  72. Duration           : 2 h 0 min
  73. Bit rate mode          : Constant
  74. Bit rate           : 640 kb/s
  75. Channel(s)           : 6 channels
  76. Channel positions        : Front: L C R, Side: L R, LFE
  77. Sampling rate          : 48.0 kHz
  78. Frame rate           : 31.250 FPS (1536 SPF)
  79. Bit depth          : 16 bits
  80. Compression mode         : Lossy
  81. Stream size          : 551 MiB (2%)
  82. Title            : Chappie.2015.2160p.BluRay.x264.8bit.SDR.DTS-HD.MA.TrueHD.7.1.Atmos-SWTYBLZ
  83. Language           : English
  84. Service kind         : Complete Main
  85. Default            : No
  86. Forced           : No

  87. Text #1
  88. ID             : 5
  89. Format           : UTF-8
  90. Codec ID           : S_TEXT/UTF8
  91. Codec ID/Info          : UTF-8 Plain Text
  92. Duration           : 1 h 53 min
  93. Bit rate           : 88 b/s
  94. Count of elements        : 1885
  95. Stream size          : 73.6 KiB (0%)
  96. Title            : English-SRT
  97. Language           : English
  98. Default            : Yes
  99. Forced           : No

  100. Text #2
  101. ID             : 6
  102. Format           : PGS
  103. Muxing mode          : zlib
  104. Codec ID           : S_HDMV/PGS
  105. Codec ID/Info          : Picture based subtitle format used on BDs/HD-DVDs
  106. Duration           : 1 h 52 min
  107. Bit rate           : 35.2 kb/s
  108. Count of elements        : 3217
  109. Stream size          : 28.2 MiB (0%)
  110. Title            : English-SDH-PGS
  111. Language           : English
  112. Default            : No
  113. Forced           : No

  114. Text #3
  115. ID             : 7
  116. Format           : PGS
  117. Muxing mode          : zlib
  118. Codec ID           : S_HDMV/PGS
  119. Codec ID/Info          : Picture based subtitle format used on BDs/HD-DVDs
  120. Duration           : 1 h 52 min
  121. Bit rate           : 35.2 kb/s
  122. Count of elements        : 3221
  123. Stream size          : 28.2 MiB (0%)
  124. Title            : English-SDH-PGS
  125. Language           : English
  126. Default            : No
  127. Forced           : No

  128. Text #4
  129. ID             : 8
  130. Format           : PGS
  131. Muxing mode          : zlib
  132. Codec ID           : S_HDMV/PGS
  133. Codec ID/Info          : Picture based subtitle format used on BDs/HD-DVDs
  134. Duration           : 1 h 53 min
  135. Bit rate           : 28.1 kb/s
  136. Count of elements        : 3765
  137. Stream size          : 22.8 MiB (0%)
  138. Title            : English-PGS
  139. Language           : English
  140. Default            : No
  141. Forced           : No

  142. Text #5
  143. ID             : 9
  144. Format           : PGS
  145. Muxing mode          : zlib
  146. Codec ID           : S_HDMV/PGS
  147. Codec ID/Info          : Picture based subtitle format used on BDs/HD-DVDs
  148. Duration           : 1 h 52 min
  149. Bit rate           : 21.2 kb/s
  150. Count of elements        : 3419
  151. Stream size          : 17.0 MiB (0%)
  152. Title            : Arabic-PGS
  153. Language           : Arabic
  154. Default            : No
  155. Forced           : No

  156. Text #6
  157. ID             : 10
  158. Format           : PGS
  159. Muxing mode          : zlib
  160. Codec ID           : S_HDMV/PGS
  161. Codec ID/Info          : Picture based subtitle format used on BDs/HD-DVDs
  162. Duration           : 1 h 59 min
  163. Bit rate           : 33.0 kb/s
  164. Count of elements        : 3381
  165. Stream size          : 28.2 MiB (0%)
  166. Title            : Danish-PGS
  167. Language           : Danish
  168. Default            : No
  169. Forced           : No

  170. Text #7
  171. ID             : 11
  172. Format           : PGS
  173. Muxing mode          : zlib
  174. Codec ID           : S_HDMV/PGS
  175. Codec ID/Info          : Picture based subtitle format used on BDs/HD-DVDs
  176. Duration           : 1 h 59 min
  177. Bit rate           : 27.4 kb/s
  178. Count of elements        : 2424
  179. Stream size          : 23.4 MiB (0%)
  180. Title            : Dutch-PGS
  181. Language           : Dutch
  182. Default            : No
  183. Forced           : No

  184. Text #8
  185. ID             : 12
  186. Format           : PGS
  187. Muxing mode          : zlib
  188. Codec ID           : S_HDMV/PGS
  189. Codec ID/Info          : Picture based subtitle format used on BDs/HD-DVDs
  190. Duration           : 1 h 59 min
  191. Bit rate           : 26.7 kb/s
  192. Count of elements        : 2935
  193. Stream size          : 22.8 MiB (0%)
  194. Title            : Finnish-PGS
  195. Language           : Finnish
  196. Default            : No
  197. Forced           : No

  198. Text #9
  199. ID             : 13
  200. Format           : PGS
  201. Muxing mode          : zlib
  202. Codec ID           : S_HDMV/PGS
  203. Codec ID/Info          : Picture based subtitle format used on BDs/HD-DVDs
  204. Duration           : 1 h 59 min
  205. Bit rate           : 25.2 kb/s
  206. Count of elements        : 3014
  207. Stream size          : 21.5 MiB (0%)
  208. Title            : French-PGS
  209. Language           : French
  210. Default            : No
  211. Forced           : No

  212. Text #10
  213. ID             : 14
  214. Format           : PGS
  215. Muxing mode          : zlib
  216. Codec ID           : S_HDMV/PGS
  217. Codec ID/Info          : Picture based subtitle format used on BDs/HD-DVDs
  218. Duration           : 1 h 52 min
  219. Bit rate           : 32.9 kb/s
  220. Count of elements        : 3387
  221. Stream size          : 26.4 MiB (0%)
  222. Title            : German-PGS
  223. Language           : German
  224. Default            : No
  225. Forced           : No

  226. Text #11
  227. ID             : 15
  228. Format           : PGS
  229. Muxing mode          : zlib
  230. Codec ID           : S_HDMV/PGS
  231. Codec ID/Info          : Picture based subtitle format used on BDs/HD-DVDs
  232. Duration           : 1 h 52 min
  233. Bit rate           : 29.9 kb/s
  234. Count of elements        : 3419
  235. Stream size          : 24.0 MiB (0%)
  236. Title            : Hindi-PGS
  237. Language           : Hindi
  238. Default            : No
  239. Forced           : No

  240. Text #12
  241. ID             : 16
  242. Format           : PGS
  243. Muxing mode          : zlib
  244. Codec ID           : S_HDMV/PGS
  245. Codec ID/Info          : Picture based subtitle format used on BDs/HD-DVDs
  246. Duration           : 1 h 59 min
  247. Bit rate           : 30.4 kb/s
  248. Count of elements        : 2787
  249. Stream size          : 26.0 MiB (0%)
  250. Title            : Italian-PGS
  251. Language           : Italian
  252. Default            : No
  253. Forced           : No

  254. Text #13
  255. ID             : 17
  256. Format           : PGS
  257. Muxing mode          : zlib
  258. Codec ID           : S_HDMV/PGS
  259. Codec ID/Info          : Picture based subtitle format used on BDs/HD-DVDs
  260. Duration           : 1 h 52 min
  261. Bit rate           : 25.1 kb/s
  262. Count of elements        : 3253
  263. Stream size          : 20.2 MiB (0%)
  264. Title            : Japanese-PGS
  265. Language           : Japanese
  266. Default            : No
  267. Forced           : No

  268. Text #14
  269. ID             : 18
  270. Format           : PGS
  271. Muxing mode          : zlib
  272. Codec ID           : S_HDMV/PGS
  273. Codec ID/Info          : Picture based subtitle format used on BDs/HD-DVDs
  274. Duration           : 1 h 52 min
  275. Bit rate           : 24.4 kb/s
  276. Count of elements        : 3381
  277. Stream size          : 19.6 MiB (0%)
  278. Title            : Korean-PGS
  279. Language           : Korean
  280. Default            : No
  281. Forced           : No

  282. Text #15
  283. ID             : 19
  284. Format           : PGS
  285. Muxing mode          : zlib
  286. Codec ID           : S_HDMV/PGS
  287. Codec ID/Info          : Picture based subtitle format used on BDs/HD-DVDs
  288. Duration           : 1 h 59 min
  289. Bit rate           : 26.7 kb/s
  290. Count of elements        : 3127
  291. Stream size          : 22.8 MiB (0%)
  292. Title            : Norwegian-PGS
  293. Language           : Norwegian
  294. Default            : No
  295. Forced           : No

  296. Text #16
  297. ID             : 20
  298. Format           : PGS
  299. Muxing mode          : zlib
  300. Codec ID           : S_HDMV/PGS
  301. Codec ID/Info          : Picture based subtitle format used on BDs/HD-DVDs
  302. Duration           : 1 h 59 min
  303. Bit rate           : 31.2 kb/s
  304. Count of elements        : 3525
  305. Stream size          : 26.7 MiB (0%)
  306. Title            : Portuguese-PGS
  307. Language           : Portuguese
  308. Default            : No
  309. Forced           : No

  310. Text #17
  311. ID             : 21
  312. Format           : PGS
  313. Muxing mode          : zlib
  314. Codec ID           : S_HDMV/PGS
  315. Codec ID/Info          : Picture based subtitle format used on BDs/HD-DVDs
  316. Duration           : 1 h 59 min
  317. Bit rate           : 28.5 kb/s
  318. Count of elements        : 3427
  319. Stream size          : 24.4 MiB (0%)
  320. Title            : Spanish-PGS
  321. Language           : Spanish
  322. Default            : No
  323. Forced           : No

  324. Text #18
  325. ID             : 22
  326. Format           : PGS
  327. Muxing mode          : zlib
  328. Codec ID           : S_HDMV/PGS
  329. Codec ID/Info          : Picture based subtitle format used on BDs/HD-DVDs
  330. Duration           : 1 h 59 min
  331. Bit rate           : 31.9 kb/s
  332. Count of elements        : 3573
  333. Stream size          : 27.3 MiB (0%)
  334. Title            : Spanish-PGS
  335. Language           : Spanish
  336. Default            : No
  337. Forced           : No

  338. Text #19
  339. ID             : 23
  340. Format           : PGS
  341. Muxing mode          : zlib
  342. Codec ID           : S_HDMV/PGS
  343. Codec ID/Info          : Picture based subtitle format used on BDs/HD-DVDs
  344. Duration           : 1 h 59 min
  345. Bit rate           : 23.4 kb/s
  346. Count of elements        : 2052
  347. Stream size          : 20.0 MiB (0%)
  348. Title            : Swedish-PGS
  349. Language           : Swedish
  350. Default            : No
  351. Forced           : No

  352. Text #20
  353. ID             : 24
  354. Format           : PGS
  355. Muxing mode          : zlib
  356. Codec ID           : S_HDMV/PGS
  357. Codec ID/Info          : Picture based subtitle format used on BDs/HD-DVDs
  358. Duration           : 1 h 59 min
  359. Bit rate           : 34.2 kb/s
  360. Count of elements        : 3597
  361. Stream size          : 29.2 MiB (0%)
  362. Title            : Turkish-PGS
  363. Language           : Turkish
  364. Default            : No
  365. Forced           : No

  366. Text #21
  367. ID             : 25
  368. Format           : PGS
  369. Muxing mode          : zlib
  370. Codec ID           : S_HDMV/PGS
  371. Codec ID/Info          : Picture based subtitle format used on BDs/HD-DVDs
  372. Duration           : 1 h 15 min
  373. Bit rate           : 405 b/s
  374. Count of elements        : 18
  375. Stream size          : 224 KiB (0%)
  376. Title            : Catalan-PGS
  377. Language           : Catalan
  378. Default            : No
  379. Forced           : No

  380. Menu
  381. 00:00:00.000         : en:Chapter 1
  382. 00:03:37.008         : en:Chapter 2
  383. 00:09:55.261         : en:Chapter 3
  384. 00:13:50.496         : en:Chapter 4
  385. 00:21:53.645         : en:Chapter 5
  386. 00:31:17.542         : en:Chapter 6
  387. 00:37:19.320         : en:Chapter 7
  388. 00:46:58.732         : en:Chapter 8
  389. 00:54:36.690         : en:Chapter 9
  390. 01:06:12.927         : en:Chapter 10
  391. 01:09:57.651         : en:Chapter 11
  392. 01:16:48.395         : en:Chapter 12
  393. 01:24:59.552         : en:Chapter 13
  394. 01:31:35.198         : en:Chapter 14
  395. 01:42:36.942         : en:Chapter 15
  396. 01:50:03.597         : en:Chapter 16
复制代码
复制代码
093956z1jd3gw7gz8w7061.png 093957ezypdmj70prhdmrp.png 093958cgwww0qwqjwi0gqi.png 093958wvhetgtaaxuh4t66.png 093959od7z3x7foth3qzwd.png 093959ipb3gs0rxfcvpvrc.png 094000u50953ymfcp32pzw.png

                                



回复

使用道具 举报

懒得打字嘛,点击右侧快捷回复 【右侧内容,后台自定义】
您需要登录后才可以回帖 登录 | 立即加入

本版积分规则

Archiver| |网站地图

Copyright © 2024 Comsenz Inc. Powered by 蓝光电影网

本站内容由用户自主分享和转载自互联网,转载目的在于传递更多信息,并不代表本网赞同其观点和对其真实性负责。

如有侵权、违反国家法律政策行为,请联系我们,我们会第一时间及时清除和处理!

举报反馈邮箱:4k1080.com@gmail.com

快速回复 返回顶部 返回列表