找回密码

查看: 3478|回复: 2

[剧情] 危机四伏/谎言背后 What.Lies.Beneath.2000.1080p.BluRay.REMUX.AVC.DTS-HD.MA.5.1-FGT 18.76GB

[复制链接]
蓝光币
1982
发表于 2017-12-20 23:55:22 | 显示全部楼层 |阅读模式
102209p5f6y4406fzq0s41.jpg
◎译  名 危机四伏 / 假话背后 / 天涯闪灵 / 弥天大谎 / 致命假话 / 疑案背后
◎片  名 危机四伏 What Lies Beneath
◎年  代 2000
◎国  家 美国
◎类  别 剧情 / 悬疑 / 惊悚 / 可骇
◎语  言 英语
◎上映日期 2000-07-21
◎IMDb评分6.6/10 from 102,091 users
◎IMDb链接http://www.imdb.com/title/tt0161081/
◎豆瓣评分 6.7/10 from 2105 users
◎豆瓣链接 https://movie.douban.com/subject/1298876/
◎片  长 130 分钟
◎导  演 罗伯特·泽米吉斯
◎主  演 米歇尔·菲佛 Michelle Pfeiffer
      哈里森·福特 Harrison Ford
      米兰达·奥图 Miranda Otto
      詹姆斯·瑞马尔 James Remar
      凯瑟琳·汤 Katharine Towne

◎简  介 

  对于家庭妇女克莱尔(米歇尔·菲佛 Michelle Pfeiffer 饰)来说,家对她而言早已经不是温馨战争安的地点了。本来,比来家中发生了一些她没法诠释的工作,亦出现了一些让她感应恐惧的影象,而当她向丈夫诺曼(哈里森·福特 Harrison Ford 饰)发出乞助信号的时辰,诺曼并不相信妻子所说的那些听上去非常荒谬的话语。
  发生的更多怪事让克莱尔深信,有一个鬼魂侵入了她安静一般的生活,而阿谁神出鬼没的鬼魂似乎有求于克莱尔。随着时候的流逝,鬼魂的实在身份渐渐浮出水面,而让克莱尔受惊的是,这个鬼魂竟和自己的丈夫诺曼有着丝丝缕缕的联系。鬼魂究竟想要怎样?丈夫能否如概况上看上去的那样明净?透过心中的迷雾,克莱尔似乎大白了什么。



  1. Video
  2. ID             : 1
  3. Format           : AVC
  4. Format/Info          : Advanced Video Codec
  5. Format profile         : [email]High@L4.1[/email]
  6. Format settings, CABAC       : Yes
  7. Format settings, ReFrames      : 4 frames
  8. Codec ID           : V_MPEG4/ISO/AVC
  9. Duration           : 2 h 10 min
  10. Bit rate mode          : Variable
  11. Maximum bit rate         : 35.0 Mb/s
  12. Width            : 1 920 pixels
  13. Height           : 1 080 pixels
  14. Display aspect ratio       : 16:9
  15. Frame rate mode        : Constant
  16. Frame rate           : 23.976 (24000/1001) FPS
  17. Standard           : NTSC
  18. Color space          : YUV
  19. Chroma subsampling       : 4:2:0
  20. Bit depth          : 8 bits
  21. Scan type          : Progressive
  22. Title            : What.Lies.Beneath.2000.1080p.BluRay.REMUX.AVC.DTS-HD.MA.5.1-FGT
  23. Language           : English
  24. Default            : No
  25. Forced           : No
  26. Color range          : Limited
  27. Color primaries        : BT.709
  28. Transfer characteristics     : BT.709
  29. Matrix coefficients        : BT.709

  30. Audio #1
  31. ID             : 2
  32. Format           : DTS
  33. Format/Info          : Digital Theater Systems
  34. Format profile         : MA / Core
  35. Mode             : 16
  36. Format settings, Endianness    : Big
  37. Codec ID           : A_DTS
  38. Duration           : 2 h 10 min
  39. Bit rate mode          : Variable / Constant
  40. Bit rate           : Unknown / 1 509 kb/s
  41. Channel(s)           : 6 channels
  42. Channel positions        : Front: L C R, Side: L R, LFE
  43. Sampling rate          : 48.0 kHz
  44. Frame rate           : 93.750 FPS (512 spf)
  45. Bit depth          : 16 bits
  46. Compression mode         : Lossless / Lossy
  47. Title            : What.Lies.Beneath.2000.1080p.BluRay.REMUX.AVC.DTS-HD.MA.5.1-FGT
  48. Language           : English
  49. Default            : Yes
  50. Forced           : No

  51. Audio #2
  52. ID             : 3
  53. Format           : DTS
  54. Format/Info          : Digital Theater Systems
  55. Mode             : 16
  56. Format settings, Endianness    : Big
  57. Codec ID           : A_DTS
  58. Duration           : 2 h 10 min
  59. Bit rate mode          : Constant
  60. Bit rate           : 1 509 kb/s
  61. Channel(s)           : 6 channels
  62. Channel positions        : Front: L C R, Side: L R, LFE
  63. Sampling rate          : 48.0 kHz
  64. Frame rate           : 93.750 FPS (512 spf)
  65. Bit depth          : 16 bits
  66. Compression mode         : Lossy
  67. Stream size          : 1.37GB (7%)
  68. Title            : What.Lies.Beneath.2000.1080p.BluRay.REMUX.AVC.DTS-HD.MA.5.1-FGT
  69. Language           : English
  70. Default            : No
  71. Forced           : No

  72. Audio #3
  73. ID             : 4
  74. Format           : AC-3
  75. Format/Info          : Audio Coding 3
  76. Format settings, Endianness    : Big
  77. Codec ID           : A_AC3
  78. Duration           : 2 h 10 min
  79. Bit rate mode          : Constant
  80. Bit rate           : 448 kb/s
  81. Channel(s)           : 6 channels
  82. Channel positions        : Front: L C R, Side: L R, LFE
  83. Sampling rate          : 48.0 kHz
  84. Frame rate           : 31.250 FPS (1536 spf)
  85. Bit depth          : 16 bits
  86. Compression mode         : Lossy
  87. Stream size          : 417 MiB (2%)
  88. Title            : What.Lies.Beneath.2000.1080p.BluRay.REMUX.AVC.DTS-HD.MA.5.1-FGT
  89. Language           : French
  90. Service kind         : Complete Main
  91. Default            : No
  92. Forced           : No

  93. Audio #4
  94. ID             : 5
  95. Format           : AC-3
  96. Format/Info          : Audio Coding 3
  97. Format settings, Endianness    : Big
  98. Codec ID           : A_AC3
  99. Duration           : 2 h 10 min
  100. Bit rate mode          : Constant
  101. Bit rate           : 448 kb/s
  102. Channel(s)           : 5 channels
  103. Channel positions        : Front: L C R, Side: L R
  104. Sampling rate          : 48.0 kHz
  105. Frame rate           : 31.250 FPS (1536 spf)
  106. Bit depth          : 16 bits
  107. Compression mode         : Lossy
  108. Stream size          : 417 MiB (2%)
  109. Title            : What.Lies.Beneath.2000.1080p.BluRay.REMUX.AVC.DTS-HD.MA.5.1-FGT
  110. Language           : English
  111. Service kind         : Complete Main
  112. Default            : No
  113. Forced           : No

  114. Text #1
  115. ID             : 6
  116. Format           : PGS
  117. Muxing mode          : zlib
  118. Codec ID           : S_HDMV/PGS
  119. Codec ID/Info          : Picture based subtitle format used on BDs/HD-DVDs
  120. Title            : English-PGS
  121. Language           : English
  122. Default            : Yes
  123. Forced           : No

  124. Text #2
  125. ID             : 7
  126. Format           : PGS
  127. Muxing mode          : zlib
  128. Codec ID           : S_HDMV/PGS
  129. Codec ID/Info          : Picture based subtitle format used on BDs/HD-DVDs
  130. Title            : French-PGS
  131. Language           : French
  132. Default            : No
  133. Forced           : No

  134. Menu
  135. 00:00:00.000         : en:Chapter 01
  136. 00:16:12.596         : en:Chapter 02
  137. 00:30:59.482         : en:Chapter 03
  138. 00:43:50.711         : en:Chapter 04
  139. 00:59:35.196         : en:Chapter 05
  140. 01:16:48.186         : en:Chapter 06
  141. 01:31:02.582         : en:Chapter 07
  142. 01:51:19.547         : en:Chapter 08
  143. 02:03:15.346         : en:Chapter 09
  144. 02:09:59.208         : en:Chapter 10



复制代码
复制代码
102209y6r3wzqq3xtw9rrr.jpg 102209okr0n5q5cqz55dqd.jpg 102209e1w1qvczlrjr0h02.jpg 102209m9f2f0awdkdiko0f.jpg 102209ecpf9xcdkep5dk7w.jpg 102209f022h7iwtpxwpzit.jpg





回复

使用道具 举报

蓝光币
245
发表于 2018-4-2 13:14:33 | 显示全部楼层
非常 感谢不错的电影
回复

使用道具 举报

懒得打字嘛,点击右侧快捷回复 【右侧内容,后台自定义】
您需要登录后才可以回帖 登录 | 立即加入

本版积分规则

Archiver| |网站地图

Copyright © 2024 Comsenz Inc. Powered by 蓝光电影网

本站内容由用户自主分享和转载自互联网,转载目的在于传递更多信息,并不代表本网赞同其观点和对其真实性负责。

如有侵权、违反国家法律政策行为,请联系我们,我们会第一时间及时清除和处理!

举报反馈邮箱:4k1080.com@gmail.com

快速回复 返回顶部 返回列表