找回密码

查看: 2663|回复: 0

[惊悚] 颤栗汪洋3 Open.Water.3.Cage.Dive.2017.1080p.BluRay.REMUX.AVC.DTS-HD.MA.5.1-FGT 17.04GB

[复制链接]
蓝光币
1974
发表于 2017-12-21 11:14:56 | 显示全部楼层 |阅读模式
133449ty8v23cb82nvsyno.jpg
◎译  名 战栗汪洋3 / Under The Deep
◎片  名 战栗汪洋3 Open Water 3: Cage Dive
◎年  代 2017
◎国  家 澳大利亚
◎类  别 剧情 / 惊悚 / 可骇
◎语  言 英语
◎上映日期 无尚映时候
◎IMDb评分4.1/10 from 970 users
◎IMDb链接http://www.imdb.com/title/tt4126568/
◎豆瓣评分 今朝无人评价
◎豆瓣链接 https://movie.douban.com/subject/26892964/
◎片  长 80分钟
◎导  演 Gerald Rascionato
◎主  演 Suzanne Dervish-Ali
      Megan Peta Hill
      Joel Hogan
      Pete Valley
      Tara Wraith
      Josh Potthoff
      Mark Fell

◎简  介 

  Three friends, filming an audition tape for an extreme reality game show, take part in shark cage diving. Which soon turns into a catastrophic turn of events, leaving them in great white infested waters, turning their recording into a blood chilling diary of survival and death.



  1. Video
  2. ID             : 1
  3. Format           : AVC
  4. Format/Info          : Advanced Video Codec
  5. Format profile         : [email]High@L4.1[/email]
  6. Format settings, CABAC       : Yes
  7. Format settings, ReFrames      : 4 frames
  8. Codec ID           : V_MPEG4/ISO/AVC
  9. Duration           : 1 h 20 min
  10. Bit rate mode          : Variable
  11. Maximum bit rate         : 37.0 Mb/s
  12. Width            : 1 920 pixels
  13. Height           : 1 080 pixels
  14. Display aspect ratio       : 16:9
  15. Frame rate mode        : Constant
  16. Frame rate           : 23.976 (24000/1001) FPS
  17. Color space          : YUV
  18. Chroma subsampling       : 4:2:0
  19. Bit depth          : 8 bits
  20. Scan type          : Progressive
  21. Title            : Open.Water.3.Cage.Dive.2017.1080p.BluRay.REMUX.AVC.DTS-HD.MA.5.1-FGT
  22. Language           : English
  23. Default            : No
  24. Forced           : No

  25. Audio #1
  26. ID             : 2
  27. Format           : DTS
  28. Format/Info          : Digital Theater Systems
  29. Format profile         : MA / Core
  30. Mode             : 16
  31. Format settings, Endianness    : Big
  32. Codec ID           : A_DTS
  33. Duration           : 1 h 20 min
  34. Bit rate mode          : Variable / Constant
  35. Bit rate           : Unknown / 1 509 kb/s
  36. Channel(s)           : 6 channels
  37. Channel positions        : Front: L C R, Side: L R, LFE
  38. Sampling rate          : 48.0 kHz
  39. Frame rate           : 93.750 FPS (512 spf)
  40. Bit depth          : 24 bits
  41. Compression mode         : Lossless / Lossy
  42. Title            : Open.Water.3.Cage.Dive.2017.1080p.BluRay.REMUX.AVC.DTS-HD.MA.5.1-FGT
  43. Language           : English
  44. Default            : Yes
  45. Forced           : No

  46. Audio #2
  47. ID             : 3
  48. Format           : DTS
  49. Format/Info          : Digital Theater Systems
  50. Mode             : 16
  51. Format settings, Endianness    : Big
  52. Codec ID           : A_DTS
  53. Duration           : 1 h 20 min
  54. Bit rate mode          : Constant
  55. Bit rate           : 1 509 kb/s
  56. Channel(s)           : 6 channels
  57. Channel positions        : Front: L C R, Side: L R, LFE
  58. Sampling rate          : 48.0 kHz
  59. Frame rate           : 93.750 FPS (512 spf)
  60. Bit depth          : 24 bits
  61. Compression mode         : Lossy
  62. Stream size          : 871 MiB (5%)
  63. Title            : Open.Water.3.Cage.Dive.2017.1080p.BluRay.REMUX.AVC.DTS-HD.MA.5.1-FGT
  64. Language           : English
  65. Default            : No
  66. Forced           : No

  67. Audio #3
  68. ID             : 4
  69. Format           : AC-3
  70. Format/Info          : Audio Coding 3
  71. Format settings, Endianness    : Big
  72. Codec ID           : A_AC3
  73. Duration           : 1 h 20 min
  74. Bit rate mode          : Constant
  75. Bit rate           : 192 kb/s
  76. Channel(s)           : 2 channels
  77. Channel positions        : Front: L R
  78. Sampling rate          : 48.0 kHz
  79. Frame rate           : 31.250 FPS (1536 spf)
  80. Bit depth          : 16 bits
  81. Compression mode         : Lossy
  82. Stream size          : 111 MiB (1%)
  83. Title            : Open.Water.3.Cage.Dive.2017.1080p.BluRay.REMUX.AVC.DTS-HD.MA.5.1-FGT
  84. Language           : English
  85. Service kind         : Complete Main
  86. Default            : No
  87. Forced           : No

  88. Text #1
  89. ID             : 5
  90. Format           : PGS
  91. Muxing mode          : zlib
  92. Codec ID           : S_HDMV/PGS
  93. Codec ID/Info          : Picture based subtitle format used on BDs/HD-DVDs
  94. Title            : English-PGS
  95. Language           : English
  96. Default            : Yes
  97. Forced           : No

  98. Text #2
  99. ID             : 6
  100. Format           : PGS
  101. Muxing mode          : zlib
  102. Codec ID           : S_HDMV/PGS
  103. Codec ID/Info          : Picture based subtitle format used on BDs/HD-DVDs
  104. Title            : English-SDH-PGS
  105. Language           : English
  106. Default            : No
  107. Forced           : No

  108. Text #3
  109. ID             : 7
  110. Format           : PGS
  111. Muxing mode          : zlib
  112. Codec ID           : S_HDMV/PGS
  113. Codec ID/Info          : Picture based subtitle format used on BDs/HD-DVDs
  114. Title            : Spanish-PGS
  115. Language           : Spanish
  116. Default            : No
  117. Forced           : No

  118. Menu
  119. 00:00:00.000         : en:Chapter 01
  120. 00:04:34.107         : en:Chapter 02
  121. 00:09:04.210         : en:Chapter 03
  122. 00:12:17.570         : en:Chapter 04
  123. 00:17:31.884         : en:Chapter 05
  124. 00:22:25.093         : en:Chapter 06
  125. 00:27:29.314         : en:Chapter 07
  126. 00:32:06.591         : en:Chapter 08
  127. 00:35:51.899         : en:Chapter 09
  128. 00:40:26.674         : en:Chapter 10
  129. 00:44:23.786         : en:Chapter 11
  130. 00:49:00.520         : en:Chapter 12
  131. 00:54:15.835         : en:Chapter 13
  132. 01:01:31.396         : en:Chapter 14
  133. 01:05:55.242         : en:Chapter 15
  134. 01:09:00.803         : en:Chapter 16



复制代码
复制代码
133449szuysjc33y9zj3cu.jpg 133449ubnsiz9b9snlinzl.jpg 133449rzdl9gvgv7nbg2bg.jpg 133449xf6nw6wh6hor66hh.jpg 133449bdiny4n3xbquyzub.jpg 133449m7cxgu3fogd7oddx.jpg

                                



回复

使用道具 举报

懒得打字嘛,点击右侧快捷回复 【右侧内容,后台自定义】
您需要登录后才可以回帖 登录 | 立即加入

本版积分规则

Archiver| |网站地图

Copyright © 2024 Comsenz Inc. Powered by 蓝光电影网

本站内容由用户自主分享和转载自互联网,转载目的在于传递更多信息,并不代表本网赞同其观点和对其真实性负责。

如有侵权、违反国家法律政策行为,请联系我们,我们会第一时间及时清除和处理!

举报反馈邮箱:4k1080.com@gmail.com

快速回复 返回顶部 返回列表