找回密码

查看: 1303|回复: 0

[恐怖] 颤栗汪洋3 Open.Water.3.Cage.Dive.2017.1080p.BluRay.x264-PSYCHD 6.57GB

[复制链接]
蓝光币
2027
发表于 2020-11-11 11:38:54 | 显示全部楼层 |阅读模式


◎译  名 战栗汪洋3/Under The Deep
◎片  名 Open Water 3: Cage Dive
◎年  代 2017
◎产  地 澳大利亚
◎类  别 可骇
◎语  言 英语
◎上映日期 2017-08-18(土耳其)
◎IMDb评分  4.2/10 from 3824 users
◎IMDb链接  https://www.imdb.com/title/tt4126568/
◎豆瓣评分 3.9/10 from 293 users
◎豆瓣链接 https://movie.douban.com/subject/26892964/
◎片  长 80分钟
◎标  签 惊悚 | 澳大利亚 | 灾难 | 2017 | 剧情 | 可骇 | 电影 | 澳大利亚电影
◎简  介


  三位朋友,拍摄一场极限真人秀的录像带,进入了鲨鱼笼潜水,可是没想到,很快会酿成一场灾难性的转折,把他们留在庞大的红色鲨鱼出没的水域,把他们的录像酿成一本关于保存和灭亡的冷血日志。
  1. Video
  2. ID                                       : 1
  3. Format                                   : AVC
  4. Format/Info                              : Advanced Video Codec
  5. Format profile                           : [email protected]
  6. Format settings                          : CABAC / 4 Ref Frames
  7. Format settings, CABAC                   : Yes
  8. Format settings, Reference frames        : 4 frames
  9. Codec ID                                 : V_MPEG4/ISO/AVC
  10. Duration                                 : 1 h 20 min
  11. Bit rate                                 : 10.1 Mb/s
  12. Width                                    : 1 920 pixels
  13. Height                                   : 1 080 pixels
  14. Display aspect ratio                     : 16:9
  15. Frame rate mode                          : Constant
  16. Frame rate                               : 23.976 (24000/1001/189150) FPS
  17. Color space                              : YUV
  18. Chroma subsampling                       : 4:2:0
  19. Bit depth                                : 8 bits
  20. Scan type                                : Progressive
  21. Bits/(Pixel*Frame)                       : 0.204
  22. Stream size                              : 5.57 GiB (85%)
  23. Writing library                          : x264 core 152 r2851 ba24899
  24. Encoding settings                        : cabac=1 / ref=4 / deblock=1:-3:-3 / analyse=0x3:0x113 / me=umh / subme=8 / psy=1 / psy_rd=1.00:0.00 / mixed_ref=1 / me_range=16 / chroma_me=1 / trellis=1 / 8x8dct=1 / cqm=0 / deadzone=21,11 / fast_pskip=1 / chroma_qp_offset=-2 / threads=24 / lookahead_threads=4 / sliced_threads=0 / nr=0 / decimate=1 / interlaced=0 / bluray_compat=0 / constrained_intra=0 / bframes=3 / b_pyramid=2 / b_adapt=2 / b_bias=0 / direct=3 / weightb=1 / open_gop=0 / weightp=2 / keyint=240 / keyint_min=24 / scenecut=40 / intra_refresh=0 / rc_lookahead=50 / rc=2pass / mbtree=1 / bitrate=10125 / ratetol=1.0 / qcomp=0.60 / qpmin=0 / qpmax=69 / qpstep=4 / cplxblur=20.0 / qblur=0.5 / ip_ratio=1.40 / aq=3:0.80
  25. Default                                  : Yes
  26. Forced                                   : No
  27. Statistics Tags Issue                    : no_variable_data 1970-01-01 00:00:00 / no_variable_data 2010-02-22 21:41:29
  28. FromStats_BitRate                        : 10109107
  29. FromStats_Duration                       : 01:20:40.336000000
  30. FromStats_FrameCount                     : 116052
  31. FromStats_StreamSize                     : 6116434421

  32. Audio
  33. ID                                       : 2
  34. Format                                   : DTS
  35. Format/Info                              : Digital Theater Systems
  36. Codec ID                                 : A_DTS
  37. Duration                                 : 1 h 20 min
  38. Bit rate mode                            : Constant
  39. Bit rate                                 : 1 509 kb/s
  40. Channel(s)                               : 6 channels
  41. Channel layout                           : C L R Ls Rs LFE
  42. Sampling rate                            : 48.0 kHz
  43. Frame rate                               : 93.750 FPS (512 SPF)
  44. Bit depth                                : 24 bits
  45. Compression mode                         : Lossy
  46. Stream size                              : 871 MiB (13%)
  47. Language                                 : English
  48. Default                                  : Yes
  49. Forced                                   : No
  50. Statistics Tags Issue                    : no_variable_data 1970-01-01 00:00:00 / no_variable_data 2010-02-22 21:41:29
  51. FromStats_BitRate                        : 1508999
  52. FromStats_Duration                       : 01:20:40.342000000
  53. FromStats_FrameCount                     : 453782
  54. FromStats_StreamSize                     : 913009384

  55. Text #1
  56. ID                                       : 3
  57. Format                                   : UTF-8
  58. Codec ID                                 : S_TEXT/UTF8
  59. Codec ID/Info                            : UTF-8 Plain Text
  60. Language                                 : English
  61. Default                                  : No
  62. Forced                                   : No
  63. Statistics Tags Issue                    : no_variable_data 1970-01-01 00:00:00 / no_variable_data 2010-02-22 21:41:29
  64. FromStats_BitRate                        : 69
  65. FromStats_Duration                       : 01:11:26.824000000
  66. FromStats_FrameCount                     : 1077
  67. FromStats_StreamSize                     : 37331

  68. Text #2
  69. ID                                       : 4
  70. Format                                   : UTF-8
  71. Codec ID                                 : S_TEXT/UTF8
  72. Codec ID/Info                            : UTF-8 Plain Text
  73. Title                                    : SDH
  74. Language                                 : English
  75. Default                                  : No
  76. Forced                                   : No
  77. Statistics Tags Issue                    : no_variable_data 1970-01-01 00:00:00 / no_variable_data 2010-02-22 21:41:29
  78. FromStats_BitRate                        : 73
  79. FromStats_Duration                       : 01:19:47.491000000
  80. FromStats_FrameCount                     : 1217
  81. FromStats_StreamSize                     : 43719

  82. Menu
  83. 00:00:00.000                             : en:00:00:00.000
  84. 00:04:34.107                             : en:00:04:34.107
  85. 00:09:04.210                             : en:00:09:04.210
  86. 00:12:17.570                             : en:00:12:17.570
  87. 00:17:31.801                             : en:00:17:31.801
  88. 00:22:25.094                             : en:00:22:25.094
  89. 00:27:29.314                             : en:00:27:29.314
  90. 00:32:06.591                             : en:00:32:06.591
  91. 00:35:51.900                             : en:00:35:51.900
  92. 00:40:26.674                             : en:00:40:26.674
  93. 00:44:23.786                             : en:00:44:23.786
  94. 00:49:00.521                             : en:00:49:00.521
  95. 00:54:16.044                             : en:00:54:16.044
  96. 01:01:30.937                             : en:01:01:30.937
  97. 01:05:55.577                             : en:01:05:55.577
  98. 01:09:00.803                             : en:01:09:00.803
复制代码



                                       
                                       

                                       
                                       
                                       




回复

使用道具 举报

懒得打字嘛,点击右侧快捷回复 【右侧内容,后台自定义】
您需要登录后才可以回帖 登录 | 立即加入

本版积分规则

Archiver| |网站地图

Copyright © 2024 Comsenz Inc. Powered by 蓝光电影网

本站内容由用户自主分享和转载自互联网,转载目的在于传递更多信息,并不代表本网赞同其观点和对其真实性负责。

如有侵权、违反国家法律政策行为,请联系我们,我们会第一时间及时清除和处理!

举报反馈邮箱:4k1080.com@gmail.com

快速回复 返回顶部 返回列表