找回密码

查看: 6108|回复: 2

敦刻尔克/敦刻尔克大撤退 Dunkirk.2017.2160p.BluRay.REMUX.HEVC.DTS-HD.MA.5.1-FGT 51.54GB

[复制链接]
蓝光币
2048
发表于 2018-1-6 19:09:43 | 显示全部楼层 |阅读模式
190952rz77oj7fq4ww4to5.jpg
◎译  名 敦刻尔克/敦刻尔克大退却/敦克尔克大行动/邓寇克大行动
◎片  名 Dunkirk
◎年  代 2017
◎产  地 英国/法国/美国/荷兰
◎类  别 剧情/历史/战争
◎语  言 英语/法语/德语
◎上映日期 2017-07-13(伦敦首映)/2017-07-21(美国)/2017-09-01(中国大陆)
◎IMDb评分  8.1/10 from 302,344 users
◎IMDb链接  http://www.imdb.com/title/tt5013056/
◎豆瓣评分 8.5/10 from 280,360 users
◎豆瓣链接 https://movie.douban.com/subject/26607693/
◎片  长 107分钟
◎导  演 克里斯托弗·诺兰 Christopher Nolan
◎主  演 菲恩·怀特海德 Fionn Whitehead
      汤姆·格林-卡尼 Tom Glynn-Carney
      杰克·劳登 Jack Lowden
      哈里·斯泰尔斯 Harry Styles
      阿纽林·巴纳德 Aneurin Barnard
      汤姆·哈迪 Tom Hardy
      马克·里朗斯 Mark Rylance
      巴里·基奥汉 Barry Keoghan
      基里安·墨菲 Cillian Murphy
      詹姆斯·达西 James D'Arcy
      肯尼思·布拉纳 Kenneth Branagh
      李·阿姆斯特朗 Lee Armstrong
      詹姆斯·布鲁尔 James Bloor
      达米安·勃纳尔 Damien Bonnard
      布莱恩·威纳尔 Brian Vernel
      哈利·理查森 Harry Richardson
      艾略特·提特恩索 Elliott Tittensor
      凯文·格思里 Kevin Guthrie
      巴比·洛克伍德 Bobby Lockwood
      米歇尔·贝尔 Michel Biel
      比利·豪尔 Billy Howle
      迈克尔·凯恩 Michael Caine
      约翰·诺兰 John Nolan
      米兰达·诺兰 Miranda Nolan

◎简  介

  故事改编自著名的二战军事事务“敦刻尔克大退却”。二战早期,40万英法盟军被敌军围困于敦刻尔克的海滩之上,面临敌军步步逼近的绝境,情势万分危机。英国政府和水兵策动多量船员,带动群众起来救援军队。
  英国兵士汤米(菲昂·怀特海德 Fionn Whitehead 饰)在逃离海滩的进程中相继结识吉布森与亚历克斯,同时民用船主道森师长(马克·里朗斯 Mark Rylance 饰)与儿子彼得、17岁少年乔治也分开英国,去往敦刻尔克拯救兵士。三人连续搭救了水兵(基里安·墨菲 Cillian Murphy 饰)、飞翔员柯林斯及汤米一行人,而战役机飞翔员法瑞尔(汤姆·哈迪 Tom Hardy 饰)则在被仇敌双面夹攻的艰难情形下顽强战役。
  影片的故事从陆、海、空三个角度报告,在德国军队的包围下,每小我不能不为自己的命运破釜沉舟,才有能够在世回家。

◎获奖情况

  第75届金球奖  (2018)
  电影类 最好剧情片(提名)
  电影类 最好导演(提名) 克里斯托弗·诺兰
  电影类 最好原创配乐(提名) 汉斯·季默

  第60届美国演员工会奖  (2018)
  电影最好特技群戏(提名)

  第22届美国艺术指导工会奖  (2018)
  电影奖 最好历史电影艺术指导(提名)

  第89届美国国家批评协会奖  (2017)
  年度佳片

  第23届美国批评家挑选电影奖  (2018)
  最好影片(提名)
  最好导演(提名) 克里斯托弗·诺兰
  最好群像表演(提名)
  最好摄影(提名) 霍伊特·范·霍特玛
  最好剪辑(提名)
  最好美术指导(提名)
  最好配乐(提名)
  最好视觉结果(提名)

  第18届美国电影学会奖  (2017)
  年度佳片

  第22届金卫星奖  (2018)
  电影部分 最好影片(提名)
  电影部分 最好导演(提名) 克里斯托弗·诺兰
  电影部分 最好男配角(提名) 马克·里朗斯
  电影部分 最好原创剧本(提名) 克里斯托弗·诺兰
  电影部分 最好原创配乐(提名) 汉斯·季默
  电影部分 最好摄影(提名) 霍伊特·范·霍特玛
  电影部分 最好视觉结果(提名)
  电影部分 最好剪辑(提名) 李·史姑娘
  电影部分 最好音效(提名)
  电影部分 最好美术指导(提名)
  电影部分 最好打扮设想(提名) 杰弗里·库兰

  第16届华盛顿影评人协会奖  (2017)
  最好导演 克里斯托弗·诺兰

  第38届波士顿影评人协会奖  (2017)
  最好摄影 霍伊特·范·霍特玛

  第43届洛杉矶影评人协会奖  (2017)
  最好剪辑 李·史姑娘

  第4届豆瓣电影年度榜单  (2017)
  评分最高的外语电影(提名)
  最受关注的院线电影(提名)
  9月最受关注电影

  第3届豆瓣电影年度榜单  (2016)
  最值得期待的外语电影(提名)


  1. Video
  2. ID                                       : 1
  3. Format                                   : HEVC
  4. Format/Info                              : High Efficiency Video Coding
  5. Format profile                           : Main [email]10@L5.1[/email]@High
  6. Codec ID                                 : V_MPEGH/ISO/HEVC
  7. Duration                                 : 1 h 46 min
  8. Bit rate                                 : 58.2 Mb/s
  9. Width                                    : 3 840 pixels
  10. Height                                   : 2 160 pixels
  11. Display aspect ratio                     : 16:9
  12. Frame rate mode                          : Constant
  13. Frame rate                               : 23.976 (24000/1001) FPS
  14. Color space                              : YUV
  15. Chroma subsampling                       : 4:2:0 (Type 2)
  16. Bit depth                                : 10 bits
  17. Bits/(Pixel*Frame)                       : 0.293
  18. Stream size                              : 43.4GB (84%)
  19. Title                                    : Dunkirk.2017.2160p.BluRay.REMUX.HEVC.DTS-HD.MA.5.1-FGT
  20. Default                                  : Yes
  21. Forced                                   : No
  22. Color range                              : Limited
  23. Color primaries                          : BT.2020
  24. Transfer characteristics                 : PQ
  25. Matrix coefficients                      : BT.2020 non-constant
  26. Mastering display color primaries        : Display P3
  27. Mastering display luminance              : min: 0.0050 cd/m2, max: 4000 cd/m2
  28. Maximum Content Light Level              : 323 cd/m2
  29. Maximum Frame-Average Light Level        : 144 cd/m2

  30. Audio #1
  31. ID                                       : 2
  32. Format                                   : DTS
  33. Format/Info                              : Digital Theater Systems
  34. Format profile                           : MA / Core
  35. Codec ID                                 : A_DTS
  36. Duration                                 : 1 h 46 min
  37. Bit rate mode                            : Variable / Constant
  38. Bit rate                                 : 2 411 kb/s / 1 509 kb/s
  39. Channel(s)                               : 6 channels
  40. Channel positions                        : Front: L C R, Side: L R, LFE
  41. Sampling rate                            : 48.0 kHz
  42. Frame rate                               : 93.750 FPS (512 SPF)
  43. Bit depth                                : 16 bits
  44. Compression mode                         : Lossless / Lossy
  45. Stream size                              : 1.80GB (3%)
  46. Title                                    : Dunkirk.2017.2160p.BluRay.REMUX.HEVC.DTS-HD.MA.5.1-FGT
  47. Language                                 : English
  48. Default                                  : Yes
  49. Forced                                   : No

  50. Audio #2
  51. ID                                       : 3
  52. Format                                   : AC-3
  53. Format/Info                              : Audio Coding 3
  54. Codec ID                                 : A_AC3
  55. Duration                                 : 1 h 46 min
  56. Bit rate mode                            : Constant
  57. Bit rate                                 : 448 kb/s
  58. Channel(s)                               : 6 channels
  59. Channel positions                        : Front: L C R, Side: L R, LFE
  60. Sampling rate                            : 48.0 kHz
  61. Frame rate                               : 31.250 FPS (1536 SPF)
  62. Bit depth                                : 16 bits
  63. Compression mode                         : Lossy
  64. Stream size                              : 342 MiB (1%)
  65. Title                                    : Dunkirk.2017.2160p.BluRay.REMUX.HEVC.DTS-HD.MA.5.1-FGT
  66. Language                                 : English
  67. Service kind                             : Complete Main
  68. Default                                  : No
  69. Forced                                   : No

  70. Audio #3
  71. ID                                       : 4
  72. Format                                   : DTS
  73. Format/Info                              : Digital Theater Systems
  74. Format profile                           : MA / Core
  75. Codec ID                                 : A_DTS
  76. Duration                                 : 1 h 46 min
  77. Bit rate mode                            : Variable / Constant
  78. Bit rate                                 : 2 412 kb/s / 1 509 kb/s
  79. Channel(s)                               : 6 channels
  80. Channel positions                        : Front: L C R, Side: L R, LFE
  81. Sampling rate                            : 48.0 kHz
  82. Frame rate                               : 93.750 FPS (512 SPF)
  83. Bit depth                                : 16 bits
  84. Compression mode                         : Lossless / Lossy
  85. Stream size                              : 1.80GB (3%)
  86. Title                                    : Dunkirk.2017.2160p.BluRay.REMUX.HEVC.DTS-HD.MA.5.1-FGT
  87. Language                                 : French
  88. Default                                  : No
  89. Forced                                   : No

  90. Audio #4
  91. ID                                       : 5
  92. Format                                   : DTS
  93. Format/Info                              : Digital Theater Systems
  94. Format profile                           : MA / Core
  95. Codec ID                                 : A_DTS
  96. Duration                                 : 1 h 46 min
  97. Bit rate mode                            : Variable / Constant
  98. Bit rate                                 : 2 440 kb/s / 1 509 kb/s
  99. Channel(s)                               : 6 channels
  100. Channel positions                        : Front: L C R, Side: L R, LFE
  101. Sampling rate                            : 48.0 kHz
  102. Frame rate                               : 93.750 FPS (512 SPF)
  103. Bit depth                                : 16 bits
  104. Compression mode                         : Lossless / Lossy
  105. Stream size                              : 1.82GB (4%)
  106. Title                                    : Dunkirk.2017.2160p.BluRay.REMUX.HEVC.DTS-HD.MA.5.1-FGT
  107. Language                                 : Italian
  108. Default                                  : No
  109. Forced                                   : No

  110. Audio #5
  111. ID                                       : 6
  112. Format                                   : AC-3
  113. Format/Info                              : Audio Coding 3
  114. Codec ID                                 : A_AC3
  115. Duration                                 : 1 h 46 min
  116. Bit rate mode                            : Constant
  117. Bit rate                                 : 448 kb/s
  118. Channel(s)                               : 6 channels
  119. Channel positions                        : Front: L C R, Side: L R, LFE
  120. Sampling rate                            : 48.0 kHz
  121. Frame rate                               : 31.250 FPS (1536 SPF)
  122. Bit depth                                : 16 bits
  123. Compression mode                         : Lossy
  124. Stream size                              : 342 MiB (1%)
  125. Title                                    : Dunkirk.2017.2160p.BluRay.REMUX.HEVC.DTS-HD.MA.5.1-FGT
  126. Language                                 : Chinese
  127. Service kind                             : Complete Main
  128. Default                                  : No
  129. Forced                                   : No

  130. Audio #6
  131. ID                                       : 7
  132. Format                                   : AC-3
  133. Format/Info                              : Audio Coding 3
  134. Codec ID                                 : A_AC3
  135. Duration                                 : 1 h 46 min
  136. Bit rate mode                            : Constant
  137. Bit rate                                 : 448 kb/s
  138. Channel(s)                               : 6 channels
  139. Channel positions                        : Front: L C R, Side: L R, LFE
  140. Sampling rate                            : 48.0 kHz
  141. Frame rate                               : 31.250 FPS (1536 SPF)
  142. Bit depth                                : 16 bits
  143. Compression mode                         : Lossy
  144. Stream size                              : 342 MiB (1%)
  145. Title                                    : Dunkirk.2017.2160p.BluRay.REMUX.HEVC.DTS-HD.MA.5.1-FGT
  146. Language                                 : Czech
  147. Service kind                             : Complete Main
  148. Default                                  : No
  149. Forced                                   : No

  150. Audio #7
  151. ID                                       : 8
  152. Format                                   : AC-3
  153. Format/Info                              : Audio Coding 3
  154. Codec ID                                 : A_AC3
  155. Duration                                 : 1 h 46 min
  156. Bit rate mode                            : Constant
  157. Bit rate                                 : 448 kb/s
  158. Channel(s)                               : 6 channels
  159. Channel positions                        : Front: L C R, Side: L R, LFE
  160. Sampling rate                            : 48.0 kHz
  161. Frame rate                               : 31.250 FPS (1536 SPF)
  162. Bit depth                                : 16 bits
  163. Compression mode                         : Lossy
  164. Stream size                              : 342 MiB (1%)
  165. Title                                    : Dunkirk.2017.2160p.BluRay.REMUX.HEVC.DTS-HD.MA.5.1-FGT
  166. Language                                 : Hungarian
  167. Service kind                             : Complete Main
  168. Default                                  : No
  169. Forced                                   : No

  170. Audio #8
  171. ID                                       : 9
  172. Format                                   : AC-3
  173. Format/Info                              : Audio Coding 3
  174. Codec ID                                 : A_AC3
  175. Duration                                 : 1 h 46 min
  176. Bit rate mode                            : Constant
  177. Bit rate                                 : 448 kb/s
  178. Channel(s)                               : 6 channels
  179. Channel positions                        : Front: L C R, Side: L R, LFE
  180. Sampling rate                            : 48.0 kHz
  181. Frame rate                               : 31.250 FPS (1536 SPF)
  182. Bit depth                                : 16 bits
  183. Compression mode                         : Lossy
  184. Stream size                              : 342 MiB (1%)
  185. Title                                    : Dunkirk.2017.2160p.BluRay.REMUX.HEVC.DTS-HD.MA.5.1-FGT
  186. Language                                 : Polish
  187. Service kind                             : Complete Main
  188. Default                                  : No
  189. Forced                                   : No

  190. Audio #9
  191. ID                                       : 10
  192. Format                                   : AC-3
  193. Format/Info                              : Audio Coding 3
  194. Codec ID                                 : A_AC3
  195. Duration                                 : 1 h 46 min
  196. Bit rate mode                            : Constant
  197. Bit rate                                 : 448 kb/s
  198. Channel(s)                               : 6 channels
  199. Channel positions                        : Front: L C R, Side: L R, LFE
  200. Sampling rate                            : 48.0 kHz
  201. Frame rate                               : 31.250 FPS (1536 SPF)
  202. Bit depth                                : 16 bits
  203. Compression mode                         : Lossy
  204. Stream size                              : 342 MiB (1%)
  205. Title                                    : Dunkirk.2017.2160p.BluRay.REMUX.HEVC.DTS-HD.MA.5.1-FGT
  206. Language                                 : Russian
  207. Service kind                             : Complete Main
  208. Default                                  : No
  209. Forced                                   : No

  210. Audio #10
  211. ID                                       : 11
  212. Format                                   : AC-3
  213. Format/Info                              : Audio Coding 3
  214. Codec ID                                 : A_AC3
  215. Duration                                 : 1 h 46 min
  216. Bit rate mode                            : Constant
  217. Bit rate                                 : 448 kb/s
  218. Channel(s)                               : 6 channels
  219. Channel positions                        : Front: L C R, Side: L R, LFE
  220. Sampling rate                            : 48.0 kHz
  221. Frame rate                               : 31.250 FPS (1536 SPF)
  222. Bit depth                                : 16 bits
  223. Compression mode                         : Lossy
  224. Stream size                              : 342 MiB (1%)
  225. Title                                    : Dunkirk.2017.2160p.BluRay.REMUX.HEVC.DTS-HD.MA.5.1-FGT
  226. Language                                 : Thai
  227. Service kind                             : Complete Main
  228. Default                                  : No
  229. Forced                                   : No

  230. Audio #11
  231. ID                                       : 12
  232. Format                                   : AC-3
  233. Format/Info                              : Audio Coding 3
  234. Codec ID                                 : A_AC3
  235. Duration                                 : 1 h 46 min
  236. Bit rate mode                            : Constant
  237. Bit rate                                 : 448 kb/s
  238. Channel(s)                               : 6 channels
  239. Channel positions                        : Front: L C R, Side: L R, LFE
  240. Sampling rate                            : 48.0 kHz
  241. Frame rate                               : 31.250 FPS (1536 SPF)
  242. Bit depth                                : 16 bits
  243. Compression mode                         : Lossy
  244. Stream size                              : 342 MiB (1%)
  245. Title                                    : Dunkirk.2017.2160p.BluRay.REMUX.HEVC.DTS-HD.MA.5.1-FGT
  246. Language                                 : Turkish
  247. Service kind                             : Complete Main
  248. Default                                  : No
  249. Forced                                   : No

  250. Text #1
  251. ID                                       : 13
  252. Format                                   : PGS
  253. Muxing mode                              : zlib
  254. Codec ID                                 : S_HDMV/PGS
  255. Codec ID/Info                            : Picture based subtitle format used on BDs/HD-DVDs
  256. Duration                                 : 1 h 45 min
  257. Bit rate                                 : 18.9 kb/s
  258. Count of elements                        : 1718
  259. Stream size                              : 14.3 MiB (0%)
  260. Title                                    : English-PGS
  261. Language                                 : English
  262. Default                                  : Yes
  263. Forced                                   : No

  264. Text #2
  265. ID                                       : 14
  266. Format                                   : PGS
  267. Muxing mode                              : zlib
  268. Codec ID                                 : S_HDMV/PGS
  269. Codec ID/Info                            : Picture based subtitle format used on BDs/HD-DVDs
  270. Duration                                 : 1 h 46 min
  271. Bit rate                                 : 10.9 kb/s
  272. Count of elements                        : 1296
  273. Stream size                              : 8.30 MiB (0%)
  274. Title                                    : French-PGS
  275. Language                                 : French
  276. Default                                  : No
  277. Forced                                   : No

  278. Text #3
  279. ID                                       : 15
  280. Format                                   : PGS
  281. Muxing mode                              : zlib
  282. Codec ID                                 : S_HDMV/PGS
  283. Codec ID/Info                            : Picture based subtitle format used on BDs/HD-DVDs
  284. Duration                                 : 1 h 45 min
  285. Bit rate                                 : 16.9 kb/s
  286. Count of elements                        : 1754
  287. Stream size                              : 12.8 MiB (0%)
  288. Title                                    : Italian-PGS
  289. Language                                 : Italian
  290. Default                                  : No
  291. Forced                                   : No

  292. Text #4
  293. ID                                       : 16
  294. Format                                   : PGS
  295. Muxing mode                              : zlib
  296. Codec ID                                 : S_HDMV/PGS
  297. Codec ID/Info                            : Picture based subtitle format used on BDs/HD-DVDs
  298. Duration                                 : 1 h 45 min
  299. Bit rate                                 : 12.0 kb/s
  300. Count of elements                        : 1282
  301. Stream size                              : 9.07 MiB (0%)
  302. Title                                    : Dutch-PGS
  303. Language                                 : Dutch
  304. Default                                  : No
  305. Forced                                   : No

  306. Text #5
  307. ID                                       : 17
  308. Format                                   : PGS
  309. Muxing mode                              : zlib
  310. Codec ID                                 : S_HDMV/PGS
  311. Codec ID/Info                            : Picture based subtitle format used on BDs/HD-DVDs
  312. Duration                                 : 1 h 45 min
  313. Bit rate                                 : 10.9 kb/s
  314. Count of elements                        : 1366
  315. Stream size                              : 8.26 MiB (0%)
  316. Title                                    : Chinese-PGS
  317. Language                                 : Chinese
  318. Default                                  : No
  319. Forced                                   : No

  320. Text #6
  321. ID                                       : 18
  322. Format                                   : PGS
  323. Muxing mode                              : zlib
  324. Codec ID                                 : S_HDMV/PGS
  325. Codec ID/Info                            : Picture based subtitle format used on BDs/HD-DVDs
  326. Duration                                 : 1 h 46 min
  327. Bit rate                                 : 16.1 kb/s
  328. Count of elements                        : 1310
  329. Stream size                              : 12.2 MiB (0%)
  330. Title                                    : Chinese-PGS
  331. Language                                 : Chinese
  332. Default                                  : No
  333. Forced                                   : No

  334. Text #7
  335. ID                                       : 19
  336. Format                                   : PGS
  337. Muxing mode                              : zlib
  338. Codec ID                                 : S_HDMV/PGS
  339. Codec ID/Info                            : Picture based subtitle format used on BDs/HD-DVDs
  340. Duration                                 : 1 h 46 min
  341. Bit rate                                 : 11.8 kb/s
  342. Count of elements                        : 1424
  343. Stream size                              : 8.92 MiB (0%)
  344. Title                                    : Chinese-PGS
  345. Language                                 : Chinese
  346. Default                                  : No
  347. Forced                                   : No

  348. Text #8
  349. ID                                       : 20
  350. Format                                   : PGS
  351. Muxing mode                              : zlib
  352. Codec ID                                 : S_HDMV/PGS
  353. Codec ID/Info                            : Picture based subtitle format used on BDs/HD-DVDs
  354. Duration                                 : 1 h 46 min
  355. Bit rate                                 : 7 996 b/s
  356. Count of elements                        : 1402
  357. Stream size                              : 6.07 MiB (0%)
  358. Title                                    : Korean-PGS
  359. Language                                 : Korean
  360. Default                                  : No
  361. Forced                                   : No

  362. Text #9
  363. ID                                       : 21
  364. Format                                   : PGS
  365. Muxing mode                              : zlib
  366. Codec ID                                 : S_HDMV/PGS
  367. Codec ID/Info                            : Picture based subtitle format used on BDs/HD-DVDs
  368. Duration                                 : 1 h 46 min
  369. Bit rate                                 : 7 968 b/s
  370. Count of elements                        : 1432
  371. Stream size                              : 6.05 MiB (0%)
  372. Title                                    : Arabic-PGS
  373. Language                                 : Arabic
  374. Default                                  : No
  375. Forced                                   : No

  376. Text #10
  377. ID                                       : 22
  378. Format                                   : PGS
  379. Muxing mode                              : zlib
  380. Codec ID                                 : S_HDMV/PGS
  381. Codec ID/Info                            : Picture based subtitle format used on BDs/HD-DVDs
  382. Duration                                 : 1 h 45 min
  383. Bit rate                                 : 14.3 kb/s
  384. Count of elements                        : 1416
  385. Stream size                              : 10.8 MiB (0%)
  386. Title                                    : Croatian-PGS
  387. Language                                 : Croatian
  388. Default                                  : No
  389. Forced                                   : No

  390. Text #11
  391. ID                                       : 23
  392. Format                                   : PGS
  393. Muxing mode                              : zlib
  394. Codec ID                                 : S_HDMV/PGS
  395. Codec ID/Info                            : Picture based subtitle format used on BDs/HD-DVDs
  396. Duration                                 : 1 h 46 min
  397. Bit rate                                 : 12.4 kb/s
  398. Count of elements                        : 1424
  399. Stream size                              : 9.45 MiB (0%)
  400. Title                                    : Czech-PGS
  401. Language                                 : Czech
  402. Default                                  : No
  403. Forced                                   : No

  404. Text #12
  405. ID                                       : 24
  406. Format                                   : PGS
  407. Muxing mode                              : zlib
  408. Codec ID                                 : S_HDMV/PGS
  409. Codec ID/Info                            : Picture based subtitle format used on BDs/HD-DVDs
  410. Duration                                 : 1 h 45 min
  411. Bit rate                                 : 12.8 kb/s
  412. Count of elements                        : 1078
  413. Stream size                              : 9.70 MiB (0%)
  414. Title                                    : Danish-PGS
  415. Language                                 : Danish
  416. Default                                  : No
  417. Forced                                   : No

  418. Text #13
  419. ID                                       : 25
  420. Format                                   : PGS
  421. Muxing mode                              : zlib
  422. Codec ID                                 : S_HDMV/PGS
  423. Codec ID/Info                            : Picture based subtitle format used on BDs/HD-DVDs
  424. Duration                                 : 1 h 45 min
  425. Bit rate                                 : 14.9 kb/s
  426. Count of elements                        : 1420
  427. Stream size                              : 11.3 MiB (0%)
  428. Title                                    : Finnish-PGS
  429. Language                                 : Finnish
  430. Default                                  : No
  431. Forced                                   : No

  432. Text #14
  433. ID                                       : 26
  434. Format                                   : PGS
  435. Muxing mode                              : zlib
  436. Codec ID                                 : S_HDMV/PGS
  437. Codec ID/Info                            : Picture based subtitle format used on BDs/HD-DVDs
  438. Duration                                 : 1 h 46 min
  439. Bit rate                                 : 16.5 kb/s
  440. Count of elements                        : 1420
  441. Stream size                              : 12.5 MiB (0%)
  442. Title                                    : Greek-PGS
  443. Language                                 : Greek
  444. Default                                  : No
  445. Forced                                   : No

  446. Text #15
  447. ID                                       : 27
  448. Format                                   : PGS
  449. Muxing mode                              : zlib
  450. Codec ID                                 : S_HDMV/PGS
  451. Codec ID/Info                            : Picture based subtitle format used on BDs/HD-DVDs
  452. Duration                                 : 1 h 46 min
  453. Bit rate                                 : 9 729 b/s
  454. Count of elements                        : 1424
  455. Stream size                              : 7.38 MiB (0%)
  456. Title                                    : Hebrew-PGS
  457. Language                                 : Hebrew
  458. Default                                  : No
  459. Forced                                   : No

  460. Text #16
  461. ID                                       : 28
  462. Format                                   : PGS
  463. Muxing mode                              : zlib
  464. Codec ID                                 : S_HDMV/PGS
  465. Codec ID/Info                            : Picture based subtitle format used on BDs/HD-DVDs
  466. Duration                                 : 1 h 45 min
  467. Bit rate                                 : 14.0 kb/s
  468. Count of elements                        : 1394
  469. Stream size                              : 10.6 MiB (0%)
  470. Title                                    : Hungarian-PGS
  471. Language                                 : Hungarian
  472. Default                                  : No
  473. Forced                                   : No

  474. Text #17
  475. ID                                       : 29
  476. Format                                   : PGS
  477. Muxing mode                              : zlib
  478. Codec ID                                 : S_HDMV/PGS
  479. Codec ID/Info                            : Picture based subtitle format used on BDs/HD-DVDs
  480. Duration                                 : 1 h 45 min
  481. Bit rate                                 : 12.1 kb/s
  482. Count of elements                        : 1088
  483. Stream size                              : 9.14 MiB (0%)
  484. Title                                    : Norwegian-PGS
  485. Language                                 : Norwegian
  486. Default                                  : No
  487. Forced                                   : No

  488. Text #18
  489. ID                                       : 30
  490. Format                                   : PGS
  491. Muxing mode                              : zlib
  492. Codec ID                                 : S_HDMV/PGS
  493. Codec ID/Info                            : Picture based subtitle format used on BDs/HD-DVDs
  494. Duration                                 : 1 h 46 min
  495. Bit rate                                 : 12.2 kb/s
  496. Count of elements                        : 1390
  497. Stream size                              : 9.24 MiB (0%)
  498. Title                                    : Polish-PGS
  499. Language                                 : Polish
  500. Default                                  : No
  501. Forced                                   : No

  502. Text #19
  503. ID                                       : 31
  504. Format                                   : PGS
  505. Muxing mode                              : zlib
  506. Codec ID                                 : S_HDMV/PGS
  507. Codec ID/Info                            : Picture based subtitle format used on BDs/HD-DVDs
  508. Duration                                 : 1 h 45 min
  509. Bit rate                                 : 15.0 kb/s
  510. Count of elements                        : 1424
  511. Stream size                              : 11.3 MiB (0%)
  512. Title                                    : Portuguese-PGS
  513. Language                                 : Portuguese
  514. Default                                  : No
  515. Forced                                   : No

  516. Text #20
  517. ID                                       : 32
  518. Format                                   : PGS
  519. Muxing mode                              : zlib
  520. Codec ID                                 : S_HDMV/PGS
  521. Codec ID/Info                            : Picture based subtitle format used on BDs/HD-DVDs
  522. Duration                                 : 1 h 45 min
  523. Bit rate                                 : 13.6 kb/s
  524. Count of elements                        : 1386
  525. Stream size                              : 10.3 MiB (0%)
  526. Title                                    : Romanian-PGS
  527. Language                                 : Romanian
  528. Default                                  : No
  529. Forced                                   : No

  530. Text #21
  531. ID                                       : 33
  532. Format                                   : PGS
  533. Muxing mode                              : zlib
  534. Codec ID                                 : S_HDMV/PGS
  535. Codec ID/Info                            : Picture based subtitle format used on BDs/HD-DVDs
  536. Duration                                 : 1 h 46 min
  537. Bit rate                                 : 14.1 kb/s
  538. Count of elements                        : 1292
  539. Stream size                              : 10.7 MiB (0%)
  540. Title                                    : Russian-PGS
  541. Language                                 : Russian
  542. Default                                  : No
  543. Forced                                   : No

  544. Text #22
  545. ID                                       : 34
  546. Format                                   : PGS
  547. Muxing mode                              : zlib
  548. Codec ID                                 : S_HDMV/PGS
  549. Codec ID/Info                            : Picture based subtitle format used on BDs/HD-DVDs
  550. Duration                                 : 1 h 45 min
  551. Bit rate                                 : 14.0 kb/s
  552. Count of elements                        : 1396
  553. Stream size                              : 10.6 MiB (0%)
  554. Title                                    : Swedish-PGS
  555. Language                                 : Swedish
  556. Default                                  : No
  557. Forced                                   : No

  558. Text #23
  559. ID                                       : 35
  560. Format                                   : PGS
  561. Muxing mode                              : zlib
  562. Codec ID                                 : S_HDMV/PGS
  563. Codec ID/Info                            : Picture based subtitle format used on BDs/HD-DVDs
  564. Duration                                 : 1 h 46 min
  565. Bit rate                                 : 11.7 kb/s
  566. Count of elements                        : 1426
  567. Stream size                              : 8.86 MiB (0%)
  568. Title                                    : Thai-PGS
  569. Language                                 : Thai
  570. Default                                  : No
  571. Forced                                   : No

  572. Text #24
  573. ID                                       : 36
  574. Format                                   : PGS
  575. Muxing mode                              : zlib
  576. Codec ID                                 : S_HDMV/PGS
  577. Codec ID/Info                            : Picture based subtitle format used on BDs/HD-DVDs
  578. Duration                                 : 1 h 45 min
  579. Bit rate                                 : 14.3 kb/s
  580. Count of elements                        : 1406
  581. Stream size                              : 10.8 MiB (0%)
  582. Title                                    : Turkish-PGS
  583. Language                                 : Turkish
  584. Default                                  : No
  585. Forced                                   : No

  586. Text #25
  587. ID                                       : 37
  588. Format                                   : PGS
  589. Muxing mode                              : zlib
  590. Codec ID                                 : S_HDMV/PGS
  591. Codec ID/Info                            : Picture based subtitle format used on BDs/HD-DVDs
  592. Duration                                 : 1 h 45 min
  593. Bit rate                                 : 376 b/s
  594. Count of elements                        : 34
  595. Stream size                              : 291 KiB (0%)
  596. Title                                    : French-FORCED-PGS
  597. Language                                 : French
  598. Default                                  : No
  599. Forced                                   : No

  600. Text #26
  601. ID                                       : 38
  602. Format                                   : PGS
  603. Muxing mode                              : zlib
  604. Codec ID                                 : S_HDMV/PGS
  605. Codec ID/Info                            : Picture based subtitle format used on BDs/HD-DVDs
  606. Duration                                 : 1 h 45 min
  607. Bit rate                                 : 515 b/s
  608. Count of elements                        : 38
  609. Stream size                              : 399 KiB (0%)
  610. Title                                    : Italian-FORCED-PGS
  611. Language                                 : Italian
  612. Default                                  : No
  613. Forced                                   : No

  614. Text #27
  615. ID                                       : 39
  616. Format                                   : PGS
  617. Muxing mode                              : zlib
  618. Codec ID                                 : S_HDMV/PGS
  619. Codec ID/Info                            : Picture based subtitle format used on BDs/HD-DVDs
  620. Duration                                 : 1 h 45 min
  621. Bit rate                                 : 620 b/s
  622. Count of elements                        : 48
  623. Stream size                              : 480 KiB (0%)
  624. Title                                    : Chinese-FORCED-PGS
  625. Language                                 : Chinese
  626. Default                                  : No
  627. Forced                                   : No

  628. Text #28
  629. ID                                       : 40
  630. Format                                   : PGS
  631. Muxing mode                              : zlib
  632. Codec ID                                 : S_HDMV/PGS
  633. Codec ID/Info                            : Picture based subtitle format used on BDs/HD-DVDs
  634. Duration                                 : 1 h 40 min
  635. Bit rate                                 : 91 b/s
  636. Count of elements                        : 18
  637. Stream size                              : 67.3 KiB (0%)
  638. Title                                    : Czech-FORCED-PGS
  639. Language                                 : Czech
  640. Default                                  : No
  641. Forced                                   : No

  642. Text #29
  643. ID                                       : 41
  644. Format                                   : PGS
  645. Muxing mode                              : zlib
  646. Codec ID                                 : S_HDMV/PGS
  647. Codec ID/Info                            : Picture based subtitle format used on BDs/HD-DVDs
  648. Duration                                 : 1 h 45 min
  649. Bit rate                                 : 538 b/s
  650. Count of elements                        : 38
  651. Stream size                              : 417 KiB (0%)
  652. Title                                    : Hungarian-FORCED-PGS
  653. Language                                 : Hungarian
  654. Default                                  : No
  655. Forced                                   : No

  656. Text #30
  657. ID                                       : 42
  658. Format                                   : PGS
  659. Muxing mode                              : zlib
  660. Codec ID                                 : S_HDMV/PGS
  661. Codec ID/Info                            : Picture based subtitle format used on BDs/HD-DVDs
  662. Duration                                 : 1 h 45 min
  663. Bit rate                                 : 895 b/s
  664. Count of elements                        : 60
  665. Stream size                              : 694 KiB (0%)
  666. Title                                    : Russian-FORCED-PGS
  667. Language                                 : Russian
  668. Default                                  : No
  669. Forced                                   : No

  670. Text #31
  671. ID                                       : 43
  672. Format                                   : PGS
  673. Muxing mode                              : zlib
  674. Codec ID                                 : S_HDMV/PGS
  675. Codec ID/Info                            : Picture based subtitle format used on BDs/HD-DVDs
  676. Duration                                 : 1 h 45 min
  677. Bit rate                                 : 522 b/s
  678. Count of elements                        : 40
  679. Stream size                              : 404 KiB (0%)
  680. Title                                    : Turkish-FORCED-PGS
  681. Language                                 : Turkish
  682. Default                                  : No
  683. Forced                                   : No

  684. Menu
  685. 00:00:00.000                             : en:Chapter 1
  686. 00:08:51.364                             : en:Chapter 2
  687. 00:20:13.754                             : en:Chapter 3
  688. 00:29:07.620                             : en:Chapter 4
  689. 00:42:35.261                             : en:Chapter 5
  690. 00:52:48.206                             : en:Chapter 6
  691. 01:04:32.827                             : en:Chapter 7
  692. 01:12:50.824                             : en:Chapter 8
  693. 01:25:55.024                             : en:Chapter 9
  694. 01:33:23.347                             : en:Chapter 10
  695. 01:39:13.906                             : en:Chapter 11



复制代码
复制代码
190953z4nllnzk7qc2l6c4.jpg 190953a0dllli2llelfea4.jpg 190954ytttrttutyaouovm.jpg 190954f55qjd0ppt29p89q.jpg 190954lncngv8jxf0shhnn.jpg 190955daa1lz0b55r6n0wa.jpg




回复

使用道具 举报

蓝光币
908
发表于 2018-1-7 02:19:16 | 显示全部楼层
哈哈哈哈哈哈哈哈
回复

使用道具 举报

蓝光币
653
发表于 2018-11-10 20:12:12 | 显示全部楼层
看到这帖子真是高兴!
回复

使用道具 举报

懒得打字嘛,点击右侧快捷回复 【右侧内容,后台自定义】
您需要登录后才可以回帖 登录 | 立即加入

本版积分规则

Archiver| |网站地图

Copyright © 2024 Comsenz Inc. Powered by 蓝光电影网

本站内容由用户自主分享和转载自互联网,转载目的在于传递更多信息,并不代表本网赞同其观点和对其真实性负责。

如有侵权、违反国家法律政策行为,请联系我们,我们会第一时间及时清除和处理!

举报反馈邮箱:4k1080.com@gmail.com

快速回复 返回顶部 返回列表