找回密码

查看: 6718|回复: 5

敦刻尔克/敦刻尔克大撤退 Dunkirk.2017.2160p.BluRay.x265.10bit.HDR.DTS-HD.MA.5.1-TERMiNAL 16.80GB

[复制链接]
蓝光币
2048
发表于 2018-1-7 21:45:44 | 显示全部楼层 |阅读模式
202151xzppo5hzppbf2f26.jpg
◎译  名 敦刻尔克/敦刻尔克大退却/敦克尔克大行动/邓寇克大行动
◎片  名 Dunkirk
◎年  代 2017
◎产  地 英国/法国/美国/荷兰
◎类  别 剧情/历史/战争
◎语  言 英语/法语/德语
◎上映日期 2017-07-13(伦敦首映)/2017-07-21(美国)/2017-09-01(中国大陆)
◎IMDb评分  8.1/10 from 305,873 users
◎IMDb链接  http://www.imdb.com/title/tt5013056/
◎豆瓣评分 8.5/10 from 282,897 users
◎豆瓣链接 https://movie.douban.com/subject/26607693/
◎片  长 107分钟
◎导  演 克里斯托弗·诺兰 Christopher Nolan
◎主  演 菲恩·怀特海德 Fionn Whitehead
      汤姆·格林-卡尼 Tom Glynn-Carney
      杰克·劳登 Jack Lowden
      哈里·斯泰尔斯 Harry Styles
      阿纽林·巴纳德 Aneurin Barnard
      汤姆·哈迪 Tom Hardy
      马克·里朗斯 Mark Rylance
      巴里·基奥汉 Barry Keoghan
      基里安·墨菲 Cillian Murphy
      詹姆斯·达西 James D'Arcy
      肯尼思·布拉纳 Kenneth Branagh
      李·阿姆斯特朗 Lee Armstrong
      詹姆斯·布鲁尔 James Bloor
      达米安·勃纳尔 Damien Bonnard
      布莱恩·威纳尔 Brian Vernel
      哈利·理查森 Harry Richardson
      艾略特·提特恩索 Elliott Tittensor
      凯文·格思里 Kevin Guthrie
      巴比·洛克伍德 Bobby Lockwood
      米歇尔·贝尔 Michel Biel
      比利·豪尔 Billy Howle
      迈克尔·凯恩 Michael Caine
      约翰·诺兰 John Nolan
      米兰达·诺兰 Miranda Nolan

◎简  介

  故事改编自著名的二战军事事务“敦刻尔克大退却”。二战早期,40万英法盟军被敌军围困于敦刻尔克的海滩之上,面临敌军步步逼近的绝境,情势万分危机。英国政府和水兵策动多量船员,带动群众起来救援军队。
  英国兵士汤米(菲昂·怀特海德 Fionn Whitehead 饰)在逃离海滩的进程中相继结识吉布森与亚历克斯,同时民用船主道森师长(马克·里朗斯 Mark Rylance 饰)与儿子彼得、17岁少年乔治也分开英国,去往敦刻尔克拯救兵士。三人连续搭救了水兵(基里安·墨菲 Cillian Murphy 饰)、飞翔员柯林斯及汤米一行人,而战役机飞翔员法瑞尔(汤姆·哈迪 Tom Hardy 饰)则在被仇敌双面夹攻的艰难情形下顽强战役。
  影片的故事从陆、海、空三个角度报告,在德国军队的包围下,每小我不能不为自己的命运破釜沉舟,才有能够在世回家。

◎获奖情况

  第75届金球奖  (2018)
  电影类 最好剧情片(提名)
  电影类 最好导演(提名) 克里斯托弗·诺兰
  电影类 最好原创配乐(提名) 汉斯·季默

  第60届美国演员工会奖  (2018)
  电影最好特技群戏(提名)

  第22届美国艺术指导工会奖  (2018)
  电影奖 最好历史电影艺术指导(提名)

  第89届美国国家批评协会奖  (2017)
  年度佳片

  第23届美国批评家挑选电影奖  (2018)
  最好影片(提名)
  最好导演(提名) 克里斯托弗·诺兰
  最好群像表演(提名)
  最好摄影(提名) 霍伊特·范·霍特玛
  最好剪辑(提名)
  最好美术指导(提名)
  最好配乐(提名)
  最好视觉结果(提名)

  第18届美国电影学会奖  (2017)
  年度佳片

  第22届金卫星奖  (2018)
  电影部分 最好影片(提名)
  电影部分 最好导演(提名) 克里斯托弗·诺兰
  电影部分 最好男配角(提名) 马克·里朗斯
  电影部分 最好原创剧本(提名) 克里斯托弗·诺兰
  电影部分 最好原创配乐(提名) 汉斯·季默
  电影部分 最好摄影(提名) 霍伊特·范·霍特玛
  电影部分 最好视觉结果(提名)
  电影部分 最好剪辑(提名) 李·史姑娘
  电影部分 最好音效(提名)
  电影部分 最好美术指导(提名)
  电影部分 最好打扮设想(提名) 杰弗里·库兰

  第16届华盛顿影评人协会奖  (2017)
  最好导演 克里斯托弗·诺兰

  第38届波士顿影评人协会奖  (2017)
  最好摄影 霍伊特·范·霍特玛

  第43届洛杉矶影评人协会奖  (2017)
  最好剪辑 李·史姑娘

  第4届豆瓣电影年度榜单  (2017)
  评分最高的外语电影(提名)
  最受关注的院线电影(提名)
  9月最受关注电影

  第3届豆瓣电影年度榜单  (2016)
  最值得期待的外语电影(提名)


  1. Video
  2. ID                                       : 1
  3. Format                                   : HEVC
  4. Format/Info                              : High Efficiency Video Coding
  5. Format profile                           : Main [email]10@L5.1[/email]@High
  6. Codec ID                                 : V_MPEGH/ISO/HEVC
  7. Duration                                 : 1 h 46 min
  8. Bit rate                                 : 19.8 Mb/s
  9. Width                                    : 3 840 pixels
  10. Height                                   : 2 160 pixels
  11. Display aspect ratio                     : 16:9
  12. Frame rate mode                          : Constant
  13. Frame rate                               : 23.976 (24000/1001) FPS
  14. Color space                              : YUV
  15. Chroma subsampling                       : 4:2:0 (Type 2)
  16. Bit depth                                : 10 bits
  17. Bits/(Pixel*Frame)                       : 0.100
  18. Stream size                              : 14.8GB (89%)
  19. Writing library                          : x265 2.6+22-ff02513b92c0:[Windows][GCC 6.3.0][64 bit] 10bit
  20. Encoding settings                        : cpuid=1173503 / frame-threads=4 / numa-pools=20 / wpp / no-pmode / no-pme / no-psnr / no-ssim / log-level=2 / input-csp=1 / input-res=3840x2160 / interlace=0 / total-frames=153404 / level-idc=51 / high-tier=1 / uhd-bd=1 / ref=4 / no-allow-non-conformance / repeat-headers / annexb / aud / hrd / info / hash=0 / no-temporal-layers / no-open-gop / min-keyint=1 / keyint=24 / gop-lookahead=0 / bframes=4 / b-adapt=2 / b-pyramid / bframe-bias=0 / rc-lookahead=25 / lookahead-slices=4 / scenecut=40 / radl=0 / no-intra-refresh / ctu=64 / min-cu-size=8 / rect / no-amp / max-tu-size=32 / tu-inter-depth=1 / tu-intra-depth=1 / limit-tu=0 / rdoq-level=2 / dynamic-rd=0.00 / no-ssim-rd / signhide / no-tskip / nr-intra=0 / nr-inter=0 / no-constrained-intra / no-strong-intra-smoothing / max-merge=3 / limit-refs=3 / limit-modes / me=3 / subme=3 / merange=57 / temporal-mvp / weightp / no-weightb / no-analyze-src-pics / deblock=-3:-3 / no-sao / no-sao-non-deblock / rd=4 / no-early-skip / rskip / no-fast-intra / no-tskip-fast / no-cu-lossless / no-b-intra / no-splitrd-skip / rdpenalty=0 / psy-rd=2.00 / psy-rdoq=1.00 / no-rd-refine / no-lossless / cbqpoffs=0 / crqpoffs=0 / rc=crf / crf=17.0 / qcomp=0.60 / qpstep=4 / stats-write=0 / stats-read=0 / vbv-maxrate=160000 / vbv-bufsize=160000 / vbv-init=0.9 / crf-max=0.0 / crf-min=0.0 / ipratio=1.40 / pbratio=1.30 / aq-mode=1 / aq-strength=1.00 / cutree / zone-count=0 / no-strict-cbr / qg-size=32 / no-rc-grain / qpmax=69 / qpmin=0 / no-const-vbv / sar=1 / overscan=0 / videoformat=5 / range=0 / colorprim=9 / transfer=16 / colormatrix=9 / chromaloc=1 / chromaloc-top=2 / chromaloc-bottom=2 / display-window=0 / master-display=G(13250,34500)B(7500,3000)R(34000,16000)WP(15635,16450)L(40000000,50) / max-cll=323,144 / min-luma=0 / max-luma=1023 / log2-max-poc-lsb=8 / vui-timing-info / vui-hrd-info / slices=1 / no-opt-qp-pps / no-opt-ref-list-length-pps / no-multi-pass-opt-rps / scenecut-bias=0.05 / no-opt-cu-delta-qp / no-aq-motion / hdr / hdr-opt / no-dhdr10-opt / analysis-save=(null) / analysis-load=(null) / analysis-reuse-level=5 / scale-factor=0 / refine-intra=0 / refine-inter=0 / refine-mv=0 / no-limit-sao / ctu-info=0 / no-lowpass-dct / refine-mv-type=0 / copy-pic=1
  21. Default                                  : Yes
  22. Forced                                   : No
  23. Color range                              : Limited
  24. Color primaries                          : BT.2020
  25. Transfer characteristics                 : PQ
  26. Matrix coefficients                      : BT.2020 non-constant
  27. Mastering display color primaries        : Display P3
  28. Mastering display luminance              : min: 0.0050 cd/m2, max: 4000 cd/m2
  29. Maximum Content Light Level              : 323 cd/m2
  30. Maximum Frame-Average Light Level        : 144 cd/m2

  31. Audio
  32. ID                                       : 2
  33. Format                                   : DTS
  34. Format/Info                              : Digital Theater Systems
  35. Format profile                           : MA / Core
  36. Codec ID                                 : A_DTS
  37. Duration                                 : 1 h 46 min
  38. Bit rate mode                            : Variable / Constant
  39. Bit rate                                 : 2 411 kb/s / 1 509 kb/s
  40. Channel(s)                               : 6 channels
  41. Channel positions                        : Front: L C R, Side: L R, LFE
  42. Sampling rate                            : 48.0 kHz
  43. Frame rate                               : 93.750 FPS (512 SPF)
  44. Bit depth                                : 16 bits
  45. Compression mode                         : Lossless / Lossy
  46. Stream size                              : 1.80GB (11%)
  47. Language                                 : English
  48. Default                                  : Yes
  49. Forced                                   : No

  50. Text #1
  51. ID                                       : 3
  52. Format                                   : PGS
  53. Muxing mode                              : zlib
  54. Codec ID                                 : S_HDMV/PGS
  55. Codec ID/Info                            : Picture based subtitle format used on BDs/HD-DVDs
  56. Duration                                 : 1 h 45 min
  57. Bit rate                                 : 18.9 kb/s
  58. Count of elements                        : 1718
  59. Stream size                              : 14.3 MiB (0%)
  60. Title                                    : SDH
  61. Language                                 : English
  62. Default                                  : No
  63. Forced                                   : No

  64. Text #2
  65. ID                                       : 4
  66. Format                                   : PGS
  67. Muxing mode                              : zlib
  68. Codec ID                                 : S_HDMV/PGS
  69. Codec ID/Info                            : Picture based subtitle format used on BDs/HD-DVDs
  70. Duration                                 : 1 h 46 min
  71. Bit rate                                 : 10.9 kb/s
  72. Count of elements                        : 1296
  73. Stream size                              : 8.30 MiB (0%)
  74. Language                                 : French
  75. Default                                  : No
  76. Forced                                   : No

  77. Text #3
  78. ID                                       : 5
  79. Format                                   : PGS
  80. Muxing mode                              : zlib
  81. Codec ID                                 : S_HDMV/PGS
  82. Codec ID/Info                            : Picture based subtitle format used on BDs/HD-DVDs
  83. Duration                                 : 1 h 45 min
  84. Bit rate                                 : 16.9 kb/s
  85. Count of elements                        : 1754
  86. Stream size                              : 12.8 MiB (0%)
  87. Language                                 : Italian
  88. Default                                  : No
  89. Forced                                   : No

  90. Text #4
  91. ID                                       : 6
  92. Format                                   : PGS
  93. Muxing mode                              : zlib
  94. Codec ID                                 : S_HDMV/PGS
  95. Codec ID/Info                            : Picture based subtitle format used on BDs/HD-DVDs
  96. Duration                                 : 1 h 45 min
  97. Bit rate                                 : 12.0 kb/s
  98. Count of elements                        : 1282
  99. Stream size                              : 9.07 MiB (0%)
  100. Language                                 : Dutch
  101. Default                                  : No
  102. Forced                                   : No

  103. Text #5
  104. ID                                       : 7
  105. Format                                   : PGS
  106. Muxing mode                              : zlib
  107. Codec ID                                 : S_HDMV/PGS
  108. Codec ID/Info                            : Picture based subtitle format used on BDs/HD-DVDs
  109. Duration                                 : 1 h 45 min
  110. Bit rate                                 : 10.9 kb/s
  111. Count of elements                        : 1366
  112. Stream size                              : 8.26 MiB (0%)
  113. Language                                 : Chinese
  114. Default                                  : No
  115. Forced                                   : No

  116. Text #6
  117. ID                                       : 8
  118. Format                                   : PGS
  119. Muxing mode                              : zlib
  120. Codec ID                                 : S_HDMV/PGS
  121. Codec ID/Info                            : Picture based subtitle format used on BDs/HD-DVDs
  122. Duration                                 : 1 h 46 min
  123. Bit rate                                 : 16.1 kb/s
  124. Count of elements                        : 1310
  125. Stream size                              : 12.2 MiB (0%)
  126. Language                                 : Chinese
  127. Default                                  : No
  128. Forced                                   : No

  129. Text #7
  130. ID                                       : 9
  131. Format                                   : PGS
  132. Muxing mode                              : zlib
  133. Codec ID                                 : S_HDMV/PGS
  134. Codec ID/Info                            : Picture based subtitle format used on BDs/HD-DVDs
  135. Duration                                 : 1 h 46 min
  136. Bit rate                                 : 11.8 kb/s
  137. Count of elements                        : 1424
  138. Stream size                              : 8.92 MiB (0%)
  139. Language                                 : Chinese
  140. Default                                  : No
  141. Forced                                   : No

  142. Text #8
  143. ID                                       : 10
  144. Format                                   : PGS
  145. Muxing mode                              : zlib
  146. Codec ID                                 : S_HDMV/PGS
  147. Codec ID/Info                            : Picture based subtitle format used on BDs/HD-DVDs
  148. Duration                                 : 1 h 46 min
  149. Bit rate                                 : 7 996 b/s
  150. Count of elements                        : 1402
  151. Stream size                              : 6.07 MiB (0%)
  152. Language                                 : Korean
  153. Default                                  : No
  154. Forced                                   : No

  155. Text #9
  156. ID                                       : 11
  157. Format                                   : PGS
  158. Muxing mode                              : zlib
  159. Codec ID                                 : S_HDMV/PGS
  160. Codec ID/Info                            : Picture based subtitle format used on BDs/HD-DVDs
  161. Duration                                 : 1 h 46 min
  162. Bit rate                                 : 7 968 b/s
  163. Count of elements                        : 1432
  164. Stream size                              : 6.05 MiB (0%)
  165. Language                                 : Arabic
  166. Default                                  : No
  167. Forced                                   : No

  168. Text #10
  169. ID                                       : 12
  170. Format                                   : PGS
  171. Muxing mode                              : zlib
  172. Codec ID                                 : S_HDMV/PGS
  173. Codec ID/Info                            : Picture based subtitle format used on BDs/HD-DVDs
  174. Duration                                 : 1 h 45 min
  175. Bit rate                                 : 14.3 kb/s
  176. Count of elements                        : 1416
  177. Stream size                              : 10.8 MiB (0%)
  178. Language                                 : Croatian
  179. Default                                  : No
  180. Forced                                   : No

  181. Text #11
  182. ID                                       : 13
  183. Format                                   : PGS
  184. Muxing mode                              : zlib
  185. Codec ID                                 : S_HDMV/PGS
  186. Codec ID/Info                            : Picture based subtitle format used on BDs/HD-DVDs
  187. Duration                                 : 1 h 46 min
  188. Bit rate                                 : 12.4 kb/s
  189. Count of elements                        : 1424
  190. Stream size                              : 9.45 MiB (0%)
  191. Language                                 : Czech
  192. Default                                  : No
  193. Forced                                   : No

  194. Text #12
  195. ID                                       : 14
  196. Format                                   : PGS
  197. Muxing mode                              : zlib
  198. Codec ID                                 : S_HDMV/PGS
  199. Codec ID/Info                            : Picture based subtitle format used on BDs/HD-DVDs
  200. Duration                                 : 1 h 45 min
  201. Bit rate                                 : 12.8 kb/s
  202. Count of elements                        : 1078
  203. Stream size                              : 9.70 MiB (0%)
  204. Language                                 : Danish
  205. Default                                  : No
  206. Forced                                   : No

  207. Text #13
  208. ID                                       : 15
  209. Format                                   : PGS
  210. Muxing mode                              : zlib
  211. Codec ID                                 : S_HDMV/PGS
  212. Codec ID/Info                            : Picture based subtitle format used on BDs/HD-DVDs
  213. Duration                                 : 1 h 45 min
  214. Bit rate                                 : 14.9 kb/s
  215. Count of elements                        : 1420
  216. Stream size                              : 11.3 MiB (0%)
  217. Language                                 : Finnish
  218. Default                                  : No
  219. Forced                                   : No

  220. Text #14
  221. ID                                       : 16
  222. Format                                   : PGS
  223. Muxing mode                              : zlib
  224. Codec ID                                 : S_HDMV/PGS
  225. Codec ID/Info                            : Picture based subtitle format used on BDs/HD-DVDs
  226. Duration                                 : 1 h 46 min
  227. Bit rate                                 : 16.5 kb/s
  228. Count of elements                        : 1420
  229. Stream size                              : 12.5 MiB (0%)
  230. Language                                 : Greek
  231. Default                                  : No
  232. Forced                                   : No

  233. Text #15
  234. ID                                       : 17
  235. Format                                   : PGS
  236. Muxing mode                              : zlib
  237. Codec ID                                 : S_HDMV/PGS
  238. Codec ID/Info                            : Picture based subtitle format used on BDs/HD-DVDs
  239. Duration                                 : 1 h 46 min
  240. Bit rate                                 : 9 729 b/s
  241. Count of elements                        : 1424
  242. Stream size                              : 7.38 MiB (0%)
  243. Language                                 : Hebrew
  244. Default                                  : No
  245. Forced                                   : No

  246. Text #16
  247. ID                                       : 18
  248. Format                                   : PGS
  249. Muxing mode                              : zlib
  250. Codec ID                                 : S_HDMV/PGS
  251. Codec ID/Info                            : Picture based subtitle format used on BDs/HD-DVDs
  252. Duration                                 : 1 h 45 min
  253. Bit rate                                 : 14.0 kb/s
  254. Count of elements                        : 1394
  255. Stream size                              : 10.6 MiB (0%)
  256. Language                                 : Hungarian
  257. Default                                  : No
  258. Forced                                   : No

  259. Text #17
  260. ID                                       : 19
  261. Format                                   : PGS
  262. Muxing mode                              : zlib
  263. Codec ID                                 : S_HDMV/PGS
  264. Codec ID/Info                            : Picture based subtitle format used on BDs/HD-DVDs
  265. Duration                                 : 1 h 45 min
  266. Bit rate                                 : 12.1 kb/s
  267. Count of elements                        : 1088
  268. Stream size                              : 9.14 MiB (0%)
  269. Language                                 : Norwegian
  270. Default                                  : No
  271. Forced                                   : No

  272. Text #18
  273. ID                                       : 20
  274. Format                                   : PGS
  275. Muxing mode                              : zlib
  276. Codec ID                                 : S_HDMV/PGS
  277. Codec ID/Info                            : Picture based subtitle format used on BDs/HD-DVDs
  278. Duration                                 : 1 h 46 min
  279. Bit rate                                 : 12.2 kb/s
  280. Count of elements                        : 1390
  281. Stream size                              : 9.24 MiB (0%)
  282. Language                                 : Polish
  283. Default                                  : No
  284. Forced                                   : No

  285. Text #19
  286. ID                                       : 21
  287. Format                                   : PGS
  288. Muxing mode                              : zlib
  289. Codec ID                                 : S_HDMV/PGS
  290. Codec ID/Info                            : Picture based subtitle format used on BDs/HD-DVDs
  291. Duration                                 : 1 h 45 min
  292. Bit rate                                 : 15.0 kb/s
  293. Count of elements                        : 1424
  294. Stream size                              : 11.3 MiB (0%)
  295. Language                                 : Portuguese
  296. Default                                  : No
  297. Forced                                   : No

  298. Text #20
  299. ID                                       : 22
  300. Format                                   : PGS
  301. Muxing mode                              : zlib
  302. Codec ID                                 : S_HDMV/PGS
  303. Codec ID/Info                            : Picture based subtitle format used on BDs/HD-DVDs
  304. Duration                                 : 1 h 45 min
  305. Bit rate                                 : 13.6 kb/s
  306. Count of elements                        : 1386
  307. Stream size                              : 10.3 MiB (0%)
  308. Language                                 : Romanian
  309. Default                                  : No
  310. Forced                                   : No

  311. Text #21
  312. ID                                       : 23
  313. Format                                   : PGS
  314. Muxing mode                              : zlib
  315. Codec ID                                 : S_HDMV/PGS
  316. Codec ID/Info                            : Picture based subtitle format used on BDs/HD-DVDs
  317. Duration                                 : 1 h 46 min
  318. Bit rate                                 : 14.1 kb/s
  319. Count of elements                        : 1292
  320. Stream size                              : 10.7 MiB (0%)
  321. Language                                 : Russian
  322. Default                                  : No
  323. Forced                                   : No

  324. Text #22
  325. ID                                       : 24
  326. Format                                   : PGS
  327. Muxing mode                              : zlib
  328. Codec ID                                 : S_HDMV/PGS
  329. Codec ID/Info                            : Picture based subtitle format used on BDs/HD-DVDs
  330. Duration                                 : 1 h 45 min
  331. Bit rate                                 : 14.0 kb/s
  332. Count of elements                        : 1396
  333. Stream size                              : 10.6 MiB (0%)
  334. Language                                 : Swedish
  335. Default                                  : No
  336. Forced                                   : No

  337. Text #23
  338. ID                                       : 25
  339. Format                                   : PGS
  340. Muxing mode                              : zlib
  341. Codec ID                                 : S_HDMV/PGS
  342. Codec ID/Info                            : Picture based subtitle format used on BDs/HD-DVDs
  343. Duration                                 : 1 h 46 min
  344. Bit rate                                 : 11.7 kb/s
  345. Count of elements                        : 1426
  346. Stream size                              : 8.86 MiB (0%)
  347. Language                                 : Thai
  348. Default                                  : No
  349. Forced                                   : No

  350. Text #24
  351. ID                                       : 26
  352. Format                                   : PGS
  353. Muxing mode                              : zlib
  354. Codec ID                                 : S_HDMV/PGS
  355. Codec ID/Info                            : Picture based subtitle format used on BDs/HD-DVDs
  356. Duration                                 : 1 h 45 min
  357. Bit rate                                 : 14.3 kb/s
  358. Count of elements                        : 1406
  359. Stream size                              : 10.8 MiB (0%)
  360. Language                                 : Turkish
  361. Default                                  : No
  362. Forced                                   : No

  363. Menu
  364. 00:00:00.000                             : en:00:00:00.000
  365. 00:08:51.364                             : en:00:08:51.364
  366. 00:20:13.754                             : en:00:20:13.754
  367. 00:29:07.621                             : en:00:29:07.621
  368. 00:42:35.261                             : en:00:42:35.261
  369. 00:52:48.207                             : en:00:52:48.207
  370. 01:04:32.827                             : en:01:04:32.827
  371. 01:12:50.825                             : en:01:12:50.825
  372. 01:25:55.025                             : en:01:25:55.025
  373. 01:33:23.348                             : en:01:33:23.348
  374. 01:39:13.906                             : en:01:39:13.906



复制代码
复制代码
202152c81ri7wzd89p7hv1.jpg 202152gnffntdggfdlfdbd.jpg 202153wg98lq0ellu8ep5v.jpg 202153iwre8ertz88cfwev.jpg 202153nkuu9y78c7opmzmy.jpg 202154q39wjzggowgdwwdw.jpg




回复

使用道具 举报

蓝光币
2
发表于 2018-1-10 02:23:28 | 显示全部楼层
万分感谢楼主分享
回复

使用道具 举报

蓝光币
2
发表于 2018-1-10 02:24:39 | 显示全部楼层
真心感谢楼主分享
回复

使用道具 举报

蓝光币
821
发表于 2018-3-6 19:22:34 | 显示全部楼层
强烈支持楼主ing……
回复

使用道具 举报

蓝光币
11
发表于 2021-9-10 01:32:55 | 显示全部楼层

我看不错噢 谢谢楼主!蓝光电影网越来越好!
回复

使用道具 举报

蓝光币
0
发表于 2022-5-4 16:54:40 | 显示全部楼层
感谢楼主分享啊
回复

使用道具 举报

懒得打字嘛,点击右侧快捷回复 【右侧内容,后台自定义】
您需要登录后才可以回帖 登录 | 立即加入

本版积分规则

Archiver| |网站地图

Copyright © 2024 Comsenz Inc. Powered by 蓝光电影网

本站内容由用户自主分享和转载自互联网,转载目的在于传递更多信息,并不代表本网赞同其观点和对其真实性负责。

如有侵权、违反国家法律政策行为,请联系我们,我们会第一时间及时清除和处理!

举报反馈邮箱:4k1080.com@gmail.com

快速回复 返回顶部 返回列表